<?xml version="1.0" standalone="no"?>
<!DOCTYPE svg PUBLIC "-//W3C//DTD SVG 1.1//EN" "http://www.w3.org/Graphics/SVG/1.1/DTD/svg11.dtd" >
<svg xmlns="http://www.w3.org/2000/svg">
<metadata>Generated by IcoMoon</metadata>
<defs>
<font id="tmcore-icon" horiz-adv-x="1024">
<font-face units-per-em="1024" ascent="870.850439882698" descent="-153.14956011730206" />
<missing-glyph horiz-adv-x="1024" />
<glyph unicode="&#x20;" d="" />
<glyph unicode="&#xe800;" glyph-name="badge-percent" d="M700.76 549.939l-22.572 22.572c-6.156 6.156-16.416 6.156-22.572 0l-330.373-330.373c-6.156-6.156-6.156-16.416 0-22.572l22.572-22.572c6.156-6.156 16.416-6.156 22.572 0l330.373 330.373c6.156 6.156 6.156 16.416 0 22.572zM481.195 513.003c0 53.352-43.092 96.444-96.444 96.444s-96.444-43.092-96.444-96.444 43.092-96.444 96.444-96.444 96.444 43.092 96.444 96.444zM352.945 513.003c0 17.442 14.364 31.806 31.806 31.806s31.806-14.364 31.806-31.806-14.364-31.806-31.806-31.806-31.806 14.364-31.806 31.806zM641.252 352.947c-53.352 0-96.444-43.092-96.444-96.444s43.092-96.444 96.444-96.444 96.444 43.092 96.444 96.444-43.092 96.444-96.444 96.444zM641.252 224.697c-17.442 0-31.806 14.364-31.806 31.806s14.364 31.806 31.806 31.806 31.806-14.364 31.806-31.806-14.364-31.806-31.806-31.806zM1026.003 384.753c0 70.794-38.988 136.458-99.522 171.342 18.468 67.716 0 141.588-50.274 191.862s-124.146 68.742-191.862 50.274c-34.884 60.534-100.548 99.522-171.342 99.522s-136.458-38.988-171.342-99.522c-67.716 18.468-140.562 0-190.836-50.274s-69.768-124.146-51.3-191.862c-60.534-34.884-99.522-100.548-99.522-171.342s38.988-136.458 99.522-171.342c-18.468-67.716 1.026-140.562 51.3-191.862 52.326-52.326 126.198-67.716 190.836-50.274 34.884-60.534 100.548-99.522 171.342-99.522s136.458 38.988 171.342 99.522c65.664-18.468 139.536-2.052 191.862 50.274 50.274 51.3 68.742 124.146 50.274 191.862 60.534 34.884 99.522 100.548 99.522 171.342zM843.375 248.295c10.26-23.598 59.508-108.756-13.338-180.576-57.456-58.482-114.912-43.092-180.576-13.338-9.234-24.624-33.858-119.016-136.458-119.016-104.652 0-129.276 99.522-136.458 119.016-65.664-29.754-123.12-44.118-180.576 13.338-73.872 72.846-22.572 161.082-13.338 180.576-24.624 9.234-117.99 33.858-117.99 136.458 0 104.652 98.496 129.276 117.99 136.458-10.26 23.598-59.508 108.756 13.338 180.576 73.872 73.872 161.082 21.546 180.576 13.338 9.234 24.624 33.858 119.016 136.458 119.016 104.652 0 129.276-99.522 136.458-119.016 23.598 10.26 108.756 59.508 180.576-13.338 73.872-72.846 22.572-161.082 13.338-180.576 24.624-9.234 119.016-33.858 119.016-136.458 0-104.652-99.522-129.276-119.016-136.458z" />
<glyph unicode="&#xe801;" glyph-name="clock" d="M513.001 881.339c-274.969 0-496.585-221.616-496.585-496.585s221.616-496.585 496.585-496.585 496.585 221.616 496.585 496.585-221.616 496.585-496.585 496.585zM945.975 384.753c0-238.032-192.888-432.973-432.973-432.973-238.032 0-432.973 192.888-432.973 432.973 0 238.032 192.888 432.973 432.973 432.973 238.032 0 432.973-192.888 432.973-432.973zM647.408 208.281l-162.108 117.99c-7.182 4.104-10.26 11.286-10.26 19.494v319.087c0 13.338 10.26 24.624 23.598 24.624h28.728c13.338 0 23.598-11.286 23.598-24.624v-292.411l141.588-102.6c10.26-8.208 13.338-23.598 5.13-33.858l-16.416-22.572c-8.208-11.286-22.572-13.338-33.858-5.13z" />
<glyph unicode="&#xe802;" glyph-name="headphones-alt" d="M769.502 321.141h-63.612c-35.91 0-64.638-28.728-64.638-64.638v-256.5c0-35.91 28.728-64.638 64.638-64.638h63.612c70.794 0 128.25 58.482 128.25 129.276v127.224c0 70.794-57.456 129.276-128.25 129.276zM834.141 64.64c0-35.91-28.728-64.638-64.638-64.638h-63.612v256.5h63.612c35.91 0 64.638-28.728 64.638-64.638zM321.139 321.141h-64.638c-70.794 0-128.25-58.482-128.25-129.276v-127.224c0-70.794 57.456-129.276 128.25-129.276h64.638c34.884 0 63.612 28.728 63.612 64.638v256.5c0 35.91-28.728 64.638-63.612 64.638zM321.139 0.002h-64.638c-34.884 0-63.612 28.728-63.612 64.638v127.224c0 35.91 28.728 64.638 63.612 64.638h64.638zM513.001 834.142c-283.177 0-513.001-230.85-513.001-513.001v-241.11c0-8.208 7.182-15.39 16.416-15.39h31.806c9.234 0 16.416 7.182 16.416 15.39v241.11c0 247.266 201.096 448.363 448.363 448.363s449.389-201.096 449.389-448.363v-241.11c0-8.208 7.182-15.39 15.39-15.39h31.806c9.234 0 16.416 7.182 16.416 15.39v241.11c0 282.151-229.824 513.001-513.001 513.001z" />
<glyph unicode="&#xe803;" glyph-name="map-marker-alt" horiz-adv-x="770" d="M384.751 705.892c-105.678 0-191.862-87.21-191.862-192.888s86.184-191.862 191.862-191.862 192.888 86.184 192.888 191.862-87.21 192.888-192.888 192.888zM384.751 384.753c-70.794 0-128.25 57.456-128.25 128.25s57.456 128.25 128.25 128.25 128.25-57.456 128.25-128.25-57.456-128.25-128.25-128.25zM384.751 897.755c-212.382 0-384.751-172.368-384.751-384.751 0-154.926 54.378-198.018 345.763-620.732 18.468-27.702 59.508-27.702 79.002 0 290.359 422.713 344.737 465.805 344.737 620.732 0 212.382-172.368 384.751-384.751 384.751zM384.751-52.324c-279.073 404.245-320.113 436.051-320.113 565.328 0 86.184 32.832 166.212 93.366 226.746s141.588 94.392 226.746 94.392 166.212-33.858 226.746-94.392 94.392-140.562 94.392-226.746c0-129.276-42.066-161.082-321.139-565.328z" />
<glyph unicode="&#xe804;" glyph-name="mitten" horiz-adv-x="898" d="M843.375 501.717c-26.676 22.572-61.56 34.884-96.444 34.884-44.118 0-85.158-18.468-113.886-51.3l-41.040 177.498c-31.806 138.51-151.848 234.954-291.385 234.954-22.572 0-46.17-2.052-67.716-8.208-161.082-36.936-262.657-200.070-225.72-362.179l90.288-390.907c0-4.104 2.052-7.182 3.078-11.286-19.494-6.156-35.91-23.598-35.91-45.144v-160.056c0-26.676 20.52-48.222 47.196-48.222h607.394c26.676 0 50.274 21.546 50.274 48.222v160.056c0 22.572-18.468 41.040-40.014 46.17l133.38 161.082c53.352 64.638 44.118 161.082-19.494 214.434zM705.89-64.636h-577.64v129.276h577.64v-129.276zM813.621 328.323l-165.186-200.070h-482.221c-2.052 7.182-5.13 15.39-7.182 22.572l-89.262 390.907c-29.754 128.25 50.274 256.5 176.472 286.255 18.468 4.104 35.91 6.156 53.352 6.156 110.808 0 205.2-75.924 230.85-185.706l54.378-241.11 14.364-62.586 41.040 49.248 38.988 47.196c17.442 20.52 41.040 31.806 67.716 31.806 20.52 0 40.014-7.182 55.404-20.52 37.962-30.78 42.066-87.21 11.286-124.146z" />
<glyph unicode="&#xe805;" glyph-name="paw-alt" horiz-adv-x="898" d="M735.644 295.491c-52.326 29.754-94.392 123.12-134.406 195.966-30.78 57.456-91.314 86.184-151.848 86.184s-121.068-28.728-152.874-86.184c-41.040-74.898-81.054-166.212-134.406-195.966-58.482-32.832-97.47-95.418-97.47-167.238 0-105.678 85.158-191.862 191.862-191.862 3.078 0 5.13-1.026 8.208-1.026 97.47 0 137.484 64.638 184.68 64.638s86.184-64.638 183.654-64.638c3.078 0 5.13 0 8.208 1.026 106.704 0 192.888 86.184 192.888 191.862 0 71.82-40.014 134.406-98.496 167.238zM639.2 0.002h-6.156c-40.014 0-65.664 15.39-93.366 31.806-25.65 15.39-54.378 32.832-90.288 32.832s-65.664-17.442-91.314-32.832c-27.702-16.416-53.352-31.806-93.366-31.806h-8.208c-70.794 0-128.25 57.456-128.25 128.25 0 46.17 24.624 88.236 64.638 110.808 61.56 34.884 100.548 109.782 138.51 181.602 7.182 13.338 14.364 26.676 21.546 40.014 17.442 32.832 53.352 52.326 96.444 52.326s77.976-19.494 95.418-52.326c7.182-12.312 13.338-24.624 20.52-37.962 38.988-73.872 79.002-149.796 139.536-183.654 40.014-22.572 64.638-64.638 64.638-110.808 0-70.794-57.456-128.25-130.302-128.25zM224.694 496.587c0 62.586-50.274 112.86-112.86 112.86s-111.834-50.274-111.834-112.86 50.274-111.834 111.834-111.834 112.86 50.274 112.86 111.834zM64.638 496.587c0 26.676 21.546 48.222 47.196 48.222s48.222-21.546 48.222-48.222-21.546-47.196-48.222-47.196-47.196 21.546-47.196 47.196zM785.918 609.447c-62.586 0-112.86-50.274-112.86-112.86s50.274-111.834 112.86-111.834 111.834 50.274 111.834 111.834-50.274 112.86-111.834 112.86zM785.918 449.391c-26.676 0-48.222 21.546-48.222 47.196s21.546 48.222 48.222 48.222 48.222-21.546 48.222-48.222-21.546-47.196-48.222-47.196zM593.030 609.447c62.586 0 112.86 50.274 112.86 111.834s-50.274 112.86-112.86 112.86-111.834-50.274-111.834-112.86 50.274-111.834 111.834-111.834zM593.030 769.504c26.676 0 48.222-21.546 48.222-48.222s-21.546-48.222-48.222-48.222-48.222 21.546-48.222 48.222 21.546 48.222 48.222 48.222zM304.723 609.447c61.56 0 111.834 50.274 111.834 111.834s-50.274 112.86-111.834 112.86-111.834-50.274-111.834-112.86 50.274-111.834 111.834-111.834zM304.723 769.504c26.676 0 48.222-21.546 48.222-48.222s-21.546-48.222-48.222-48.222-48.222 21.546-48.222 48.222 21.546 48.222 48.222 48.222z" />
<glyph unicode="&#xe806;" glyph-name="payment_1" horiz-adv-x="1039" d="M12.312 604.317l70.794-47.196c5.13-4.104 10.26-5.13 16.416-5.13 8.208 0 18.468 5.13 23.598 11.286l1.026 3.078 186.732-126.198c8.208-6.156 17.442-9.234 29.754-9.234h8.208l46.17 6.156c-2.052-4.104-4.104-5.13-5.13-8.208-5.13-11.286-4.104-24.624 1.026-33.858 5.13-11.286 14.364-19.494 26.676-23.598 5.13-2.052 11.286-4.104 16.416-4.104 6.156 0 13.338 2.052 19.494 5.13l75.924 32.832c9.234 4.104 16.416 11.286 21.546 19.494l267.787-183.654c3.078-1.026 6.156-3.078 9.234-3.078 5.13 0 10.26 1.026 13.338 6.156 46.17 62.586 148.77 206.226 194.94 269.839 4.104 9.234 3.078 17.442-4.104 22.572l-441.181 303.697c-8.208 5.13-18.468 3.078-23.598-3.078l-27.702-41.040-4.104 5.13c-10.26 16.416-27.702 26.676-48.222 25.65l-185.706-9.234v9.234c-1.026 6.156-5.13 12.312-12.312 17.442l-70.794 48.222c-13.338 8.208-29.754 6.156-40.014-6.156l-174.42-244.188c-7.182-12.312-5.13-29.754 8.208-37.962zM513.001 435.027l-75.924-31.806c-3.078-1.026-6.156-1.026-9.234 0-3.078 2.052-6.156 4.104-8.208 6.156-2.052 4.104-2.052 6.156 0 10.26 1.026 3.078 3.078 6.156 6.156 8.208l59.508 26.676 18.468 3.078 16.416-11.286c0-6.156-4.104-9.234-7.182-11.286zM585.848 803.362l414.505-283.177-16.416-22.572-414.505 283.177 16.416 22.572zM548.912 754.114l414.505-282.151c0-1.026-18.468-25.65-19.494-26.676l-414.505 281.125 19.494 27.702zM926.481 417.585l-102.6-140.562-272.917 185.706 8.208 1.026c32.832 5.13 57.456 26.676 56.43 62.586-1.026 30.78-26.676 56.43-57.456 58.482l-123.12 11.286 74.898 103.626 416.557-282.151zM490.429 796.18c6.156 0 13.338-3.078 16.416-9.234l11.286-20.52-119.016-166.212h-9.234c-9.234 0-16.416-7.182-17.442-15.39 0-8.208 6.156-15.39 14.364-17.442l170.316-14.364c12.312-1.026 25.65-11.286 25.65-26.676 0-19.494-11.286-25.65-29.754-30.78-43.092-6.156-100.548-15.39-210.33-31.806-5.13 0-10.26 0-13.338 3.078l-186.732 126.198 138.51 192.888 209.304 10.26zM205.2 863.897l62.586-43.092c-1.026-1.026-159.030-220.59-169.29-234.954l-62.586 43.092 169.29 234.954zM662.798 460.677l37.962-25.65c8.208-4.104 18.468-3.078 22.572 4.104 5.13 8.208 4.104 17.442-3.078 21.546l-37.962 25.65c-8.208 5.13-18.468 4.104-22.572-3.078-5.13-8.208-3.078-17.442 3.078-22.572zM762.32 393.987l37.962-25.65c8.208-5.13 17.442-4.104 22.572 3.078 5.13 6.156 3.078 17.442-3.078 22.572l-37.962 25.65c-9.234 5.13-18.468 3.078-23.598-4.104-4.104-8.208-3.078-16.416 4.104-21.546zM950.079 209.307l-215.46-63.612c-27.702 37.962-105.678 36.936-115.938 36.936-87.21-4.104-175.446 25.65-177.498 25.65-88.236 26.676-166.212-31.806-169.29-33.858l-1.026-1.026c-36.936-36.936-199.044-97.47-258.552-116.964-9.234-4.104-13.338-11.286-10.26-20.52s12.312-13.338 21.546-10.26c8.208 3.078 219.564 73.872 269.839 123.12 6.156 5.13 70.794 50.274 137.484 29.754 4.104-2.052 96.444-30.78 189.81-27.702 120.042 5.13 123.12-81.054 11.286-68.742-68.742 4.104-155.952 4.104-174.42-9.234-6.156-5.13-8.208-16.416-3.078-22.572 4.104-6.156 14.364-8.208 22.572-3.078 13.338 6.156 88.236 6.156 152.874 3.078 43.092-4.104 75.924 2.052 95.418 19.494 13.338 12.312 19.494 27.702 19.494 47.196l214.434 63.612c18.468 4.104 35.91-2.052 44.118-17.442 7.182-11.286 2.052-24.624-8.208-29.754l-297.541-155.952c-18.468-10.26-35.91-13.338-56.43-11.286-111.834 11.286-380.647 26.676-468.883-65.664-6.156-6.156-6.156-16.416 0-22.572s16.416-6.156 22.572 0c80.028 83.106 359.101 63.612 443.233 54.378 25.65-4.104 52.326 3.078 74.898 14.364l298.567 156.978c24.624 15.39 35.91 47.196 19.494 74.898-15.39 27.702-50.274 41.040-81.054 30.78z" />
<glyph unicode="&#xe807;" glyph-name="payment_2" horiz-adv-x="1019" d="M910.065 336.531c-6.156 6.156-13.338 9.234-21.546 9.234h-183.654v79.002c0 9.234-6.156 16.416-15.39 16.416h-261.63c16.416 43.092 26.676 81.054 26.676 102.6 0 68.742-56.43 126.198-127.224 126.198-69.768 0-128.25-56.43-128.25-126.198 0-21.546 11.286-59.508 27.702-102.6h-211.356c-8.208 0-15.39-7.182-15.39-16.416v-352.945c0-9.234 7.182-15.39 16.416-15.39h30.78v-104.652c0-9.234 6.156-16.416 16.416-16.416h84.132c6.156-36.936 38.988-63.612 76.95-63.612s71.82 26.676 77.976 62.586h463.753c17.442-84.132 139.536-84.132 156.978 0h80.028c9.234 0 15.39 6.156 15.39 16.416 0 3.078 0 4.104 0 4.104 0 13.338 0 66.69 0 246.24 0 8.208-3.078 15.39-9.234 21.546-35.91 38.988-59.508 75.924-99.522 113.886zM327.295 638.175c51.3 0 94.392-41.040 94.392-94.392 0-40.014-59.508-181.602-94.392-261.63-35.91 80.028-95.418 219.564-95.418 261.63-1.026 51.3 41.040 94.392 95.418 94.392zM32.832 88.238v320.113h205.2c30.78-76.95 67.716-156.978 74.898-171.342 3.078-6.156 8.208-9.234 14.364-9.234s11.286 3.078 14.364 9.234c6.156 14.364 43.092 94.392 73.872 171.342h257.526c0-16.416 0-303.697 0-320.113-287.281 0-446.311 0-640.226 0zM224.694-96.442c-25.65 0-46.17 21.546-46.17 46.17 0 25.65 20.52 46.17 46.17 46.17s47.196-20.52 47.196-46.17c0-24.624-21.546-46.17-47.196-46.17zM798.231-49.246c0 25.65 20.52 46.17 46.17 46.17s47.196-21.546 47.196-46.17c1.026-61.56-93.366-61.56-93.366 0zM987.015-33.856h-62.586c-8.208 34.884-41.040 62.586-77.976 62.586-38.988 0-70.794-27.702-76.95-62.586h-466.831c-8.208 34.884-41.040 62.586-77.976 62.586s-70.794-27.702-76.95-62.586h-67.716v88.236c177.498 0 730.514 0 906.987 0v-88.236zM987.015 88.238h-282.151v225.72h47.196v-137.484c0-17.442 14.364-31.806 32.832-31.806h202.122v-56.43zM987.015 176.475h-203.148v137.484h103.626c36.936-38.988 59.508-73.872 98.496-113.886v-23.598zM854.661-33.856h-16.416c-21.546 0-21.546-31.806 0-31.806h16.416c9.234 0 15.39 6.156 15.39 16.416 0 9.234-8.208 15.39-15.39 15.39zM232.902-33.856h-16.416c-9.234 0-16.416-6.156-16.416-16.416 0-9.234 7.182-16.416 16.416-16.416h16.416c9.234 0 16.416 6.156 16.416 16.416s-8.208 16.416-16.416 16.416zM381.673 543.783c0 30.78-25.65 56.43-56.43 56.43s-56.43-25.65-56.43-56.43c0-30.78 25.65-56.43 56.43-56.43s56.43 25.65 56.43 56.43zM327.295 519.159c-13.338 0-24.624 11.286-24.624 23.598 0 13.338 11.286 24.624 24.624 24.624 12.312 0 23.598-12.312 23.598-24.624s-11.286-23.598-23.598-23.598zM891.597 455.547c7.182 0 11.286 3.078 14.364 9.234 11.286 23.598 112.86 244.188 112.86 306.775 0 69.768-56.43 126.198-127.224 126.198-69.768 0-128.25-56.43-128.25-126.198 0-62.586 102.6-282.151 113.886-306.775 3.078-6.156 7.182-9.234 14.364-9.234zM891.597 865.949c51.3 0 95.418-41.040 95.418-94.392 0-40.014-60.534-181.602-95.418-261.63-35.91 80.028-95.418 219.564-95.418 261.63 0 52.326 44.118 94.392 95.418 94.392zM948.027 771.556c0 30.78-25.65 56.43-56.43 56.43s-56.43-25.65-56.43-56.43c0-30.78 25.65-56.43 56.43-56.43 30.78 1.026 56.43 25.65 56.43 56.43zM869.025 771.556c0 12.312 11.286 23.598 24.624 23.598 12.312 0 24.624-11.286 24.624-23.598 0-13.338-12.312-23.598-24.624-23.598-15.39 1.026-24.624 10.26-24.624 23.598zM327.295 700.762c9.234 0 15.39 6.156 15.39 16.416v30.78c0 8.208 7.182 16.416 16.416 16.416h360.127c9.234 0 16.416 6.156 16.416 15.39 0 10.26-7.182 16.416-16.416 16.416h-362.179c-25.65 0-48.222-20.52-48.222-48.222v-29.754c2.052-9.234 8.208-17.442 18.468-17.442zM835.167 275.997c-7.182-6.156-7.182-16.416 0-22.572l32.832-31.806c6.156-6.156 16.416-6.156 22.572 0s6.156 16.416 0 22.572l-32.832 31.806c-7.182 6.156-16.416 6.156-22.572 0z" />
<glyph unicode="&#xe808;" glyph-name="payment_3" horiz-adv-x="1002" d="M379.621 523.263c-8.208 0-14.364-6.156-14.364-12.312v-36.936c0-8.208 6.156-13.338 14.364-13.338s14.364 6.156 14.364 13.338v36.936c-1.026 6.156-7.182 12.312-14.364 12.312zM890.571-23.596v79.002h-86.184v842.349h-605.342v-842.349h-87.21v-79.002h-111.834v-104.652h1002.405v105.678h-111.834zM863.895 28.73v-53.352h-180.576v53.352h180.576zM776.684 55.406h-43.092v753.086l43.092 43.092v-796.179zM758.216 871.079l-43.092-43.092h-426.817l-43.092 43.092h513.001zM225.72 851.584l43.092-43.092v-753.086h-43.092v796.179zM319.087-102.598h-292.411v52.326h292.411v-52.326zM319.087-24.622h-180.576v53.352h180.576v-53.352zM656.642-95.416h-309.853v248.292h84.132v-141.588l41.040 20.52 29.754-12.312 28.728 12.312 36.936-21.546v144.666h89.262v-250.344zM480.169 269.841l20.52-10.26 20.52 10.26 31.806-18.468v107.73h58.482v-174.42h-219.564v174.42h54.378v-106.704l33.858 17.442zM472.987 296.517v62.586h54.378v-60.534l-4.104 2.052-22.572-10.26-22.572 10.26-5.13-4.104zM541.73 152.877v-95.418l-10.26 6.156-28.728-15.39-29.754 15.39-14.364-8.208v99.522l83.106-2.052zM637.148 181.605v206.226h-273.943v-206.226h-45.144c1.026-1.026 1.026-126.198 1.026-126.198h-22.572v744.878h409.375v-744.878h-23.598v126.198h-45.144zM975.729-104.65h-292.411v53.352h292.411v-53.352z" />
<glyph unicode="&#xe809;" glyph-name="payment_4" d="M484.273 758.218c0 40.014-33.858 73.872-73.872 73.872-42.066 0-73.872-33.858-73.872-73.872s33.858-73.872 73.872-73.872c40.014 0 73.872 31.806 73.872 73.872zM368.335 758.218c0 22.572 19.494 42.066 42.066 42.066s42.066-19.494 42.066-42.066c0-22.572-19.494-42.066-42.066-42.066-23.598 0-42.066 18.468-42.066 42.066zM1010.613 291.387h-299.593c-20.52 122.094-102.6 225.72-231.876 274.969 33.858 68.742 70.794 151.848 70.794 191.862 0 76.95-62.586 139.536-139.536 139.536s-139.536-62.586-139.536-139.536c0-36.936 30.78-107.73 60.534-171.342-185.706-14.364-331.399-168.264-331.399-357.049 0-198.018 160.056-358.075 358.075-358.075 77.976 0 154.926 25.65 217.512 73.872v-57.456c0-9.234 6.156-15.39 16.416-15.39h418.609c9.234 0 15.39 6.156 15.39 15.39v387.829c0 7.182-6.156 15.39-15.39 15.39zM784.892 259.581h30.78v-30.78h-30.78v30.78zM682.292 246.243h-95.418c-5.13 18.468-20.52 32.832-37.962 36.936-4.104 42.066-10.26 80.028-20.52 116.964 23.598 13.338 47.196 28.728 68.742 50.274 50.274-54.378 81.054-126.198 85.158-204.174zM373.465 389.883v110.808c11.286-20.52 19.494-35.91 22.572-41.040 3.078-4.104 8.208-8.208 14.364-8.208s11.286 4.104 14.364 8.208c1.026 5.13 9.234 19.494 20.52 41.040 15.39-22.572 30.78-50.274 42.066-84.132-34.884-16.416-73.872-23.598-113.886-26.676zM498.637 384.753c8.208-31.806 14.364-66.69 17.442-103.626-15.39-6.156-28.728-19.494-32.832-35.91h-108.756v111.834c44.118 2.052 86.184 12.312 124.146 27.702zM374.491 211.359h107.73c5.13-15.39 17.442-28.728 33.858-34.884-4.104-36.936-10.26-71.82-18.468-106.704-28.728 13.338-57.456 22.572-86.184 25.65-5.13 19.494-19.494 35.91-36.936 40.014v75.924zM511.975 229.827c0 12.312 9.234 22.572 22.572 22.572s22.572-10.26 22.572-22.572c0-13.338-10.26-22.572-22.572-22.572s-22.572 9.234-22.572 22.572zM573.536 472.989c-17.442-15.39-36.936-28.728-55.404-40.014-14.364 40.014-33.858 73.872-55.404 98.496 2.052 2.052 2.052 4.104 4.104 5.13 40.014-15.39 76.95-35.91 106.704-63.612zM302.671 758.218c-1.026 59.508 48.222 107.73 107.73 107.73s107.73-48.222 107.73-107.73c0-51.3-84.132-210.33-107.73-256.5-40.014 73.872-107.73 210.33-107.73 256.5zM341.659 554.043v-163.134c-41.040 1.026-79.002 11.286-113.886 27.702 27.702 76.95 68.742 126.198 113.886 135.432zM233.928 213.411h107.73v-75.924c-19.494-6.156-33.858-20.52-36.936-40.014-30.78-5.13-59.508-13.338-87.21-23.598-9.234 32.832-15.39 68.742-17.442 105.678 16.416 5.13 28.728 17.442 33.858 33.858zM181.602 207.255c-13.338 0-22.572 9.234-22.572 22.572 0 12.312 9.234 22.572 22.572 22.572s22.572-11.286 22.572-22.572c0-13.338-10.26-22.572-22.572-22.572zM233.928 246.243c-5.13 16.416-17.442 28.728-33.858 35.91 4.104 36.936 10.26 71.82 18.468 105.678 37.962-17.442 80.028-26.676 123.12-28.728v-111.834h-107.73zM262.657 541.731c-25.65-26.676-48.222-63.612-64.638-110.808-20.52 11.286-40.014 25.65-57.456 42.066 35.91 29.754 75.924 54.378 122.094 68.742zM117.99 450.417c20.52-19.494 45.144-36.936 70.794-50.274-11.286-36.936-17.442-76.95-20.52-116.964-17.442-4.104-33.858-18.468-37.962-36.936h-96.444c3.078 77.976 34.884 149.796 84.132 204.174zM33.858 213.411h96.444v-2.052c0-1.026 0-3.078 1.026-3.078 1.026-1.026 1.026-3.078 3.078-6.156 0-1.026 2.052-3.078 2.052-3.078 1.026-2.052 3.078-5.13 4.104-6.156l2.052-2.052c4.104-4.104 9.234-8.208 15.39-10.26 0 0 0 0 1.026 0 4.104-2.052 5.13-2.052 8.208-2.052 4.104-41.040 10.26-80.028 20.52-117.99-25.65-13.338-47.196-30.78-69.768-50.274-49.248 53.352-81.054 124.146-84.132 203.148zM142.614-12.31c16.416 14.364 35.91 28.728 56.43 40.014 15.39-46.17 37.962-83.106 64.638-108.756-45.144 13.338-87.21 37.962-121.068 68.742zM341.659-94.39c-45.144 9.234-87.21 60.534-113.886 135.432 25.65 11.286 51.3 19.494 79.002 22.572 6.156-15.39 18.468-26.676 34.884-31.806v-126.198zM358.075 62.588c-13.338 0-22.572 9.234-22.572 22.572s9.234 22.572 22.572 22.572 22.572-9.234 22.572-22.572c-1.026-13.338-10.26-22.572-22.572-22.572zM374.491-94.39v126.198c14.364 6.156 27.702 17.442 33.858 31.806 27.702-4.104 54.378-12.312 80.028-22.572-26.676-74.898-68.742-126.198-113.886-135.432zM453.493-82.078c23.598 26.676 46.17 64.638 62.586 108.756 20.52-10.26 40.014-25.65 57.456-40.014-34.884-29.754-74.898-54.378-120.042-68.742zM526.34 59.51c10.26 36.936 17.442 75.924 20.52 117.99 18.468 5.13 32.832 19.494 37.962 36.936h96.444c-3.078-80.028-33.858-150.822-85.158-205.2-20.52 19.494-45.144 35.91-69.768 50.274zM994.197-31.804h-35.91c-9.234 0-15.39-6.156-15.39-15.39s6.156-16.416 15.39-16.416h35.91v-31.806h-386.803v69.768c0 0 1.026 0 1.026 1.026 0 0 0 0 0 2.052 65.664 63.612 106.704 153.9 106.704 252.396 0 10.26 0 19.494-2.052 28.728h41.040v-46.17c0-9.234 6.156-15.39 15.39-15.39h62.586c9.234 0 15.39 6.156 15.39 15.39v46.17h145.692v-290.359z" />
<glyph unicode="&#xe80a;" glyph-name="payment_5" horiz-adv-x="1116" d="M574.562 285.231l541.73 251.37-167.238 361.153-733.592-339.607 48.222-102.6-125.172-158.004-23.598 51.3-114.912-53.352 198.018-423.739 114.912 53.352-23.598 50.274 131.328 61.56 153.9 248.292zM256.5 542.757l677.162 313.957 141.588-304.723-471.961-218.538 24.624 38.988 307.801 142.614-2.052 13.338c-8.208 33.858 9.234 68.742 41.040 83.106 4.104 2.052 8.208 4.104 13.338 5.13l17.442 5.13-60.534 130.302-15.39-11.286c-4.104-3.078-8.208-5.13-11.286-7.182-33.858-15.39-72.846-5.13-94.392 25.65l-7.182 11.286-411.427-189.81 4.104-12.312c10.26-35.91-7.182-72.846-41.040-88.236-3.078-1.026-7.182-2.052-11.286-4.104l-17.442-5.13 60.534-128.25 15.39 10.26c4.104 2.052 7.182 5.13 10.26 6.156 9.234 4.104 18.468 6.156 28.728 7.182l-76.95-81.054-121.068 257.526zM442.207 563.277l364.231 169.29c30.78-34.884 81.054-47.196 124.146-26.676 1.026 0 1.026 1.026 1.026 1.026l30.78-65.664c-1.026 0-1.026-1.026-1.026-1.026-41.040-18.468-64.638-62.586-60.534-106.704l-254.448-116.964c0 4.104 0 7.182-1.026 12.312-3.078 16.416-14.364 31.806-32.832 42.066-9.234 6.156-18.468 9.234-27.702 9.234-22.572 0-37.962-17.442-42.066-22.572l-61.56-64.638c-22.572 6.156-46.17 3.078-67.716-7.182l-30.78 65.664c43.092 20.52 66.69 65.664 59.508 111.834zM213.408-87.208l-171.342 368.335 57.456 26.676 172.368-367.309-58.482-27.702zM275.995 4.106l-122.094 261.63 124.146 159.030 91.314-194.94 198.018 208.278c0 0 8.208 10.26 17.442 10.26 4.104 0 7.182-1.026 11.286-3.078 11.286-7.182 17.442-14.364 18.468-22.572 2.052-10.26-4.104-19.494-4.104-19.494l-212.382-342.685-122.094-56.43zM681.266 327.297l-103.626-48.222-124.146-199.044 4.104-7.182c11.286-20.52 32.832-32.832 55.404-32.832 9.234 0 18.468 2.052 25.65 5.13 19.494 9.234 31.806 26.676 34.884 46.17 15.39-5.13 30.78-4.104 45.144 2.052 15.39 7.182 26.676 19.494 31.806 34.884 3.078 7.182 4.104 15.39 3.078 22.572 13.338-2.052 26.676-1.026 37.962 5.13 31.806 14.364 45.144 51.3 29.754 82.080l-40.014 89.262zM679.214 184.683c-15.39-7.182-33.858 0-41.040 14.364l-28.728-13.338c0 0 0 0 0 0l10.26-22.572c4.104-8.208 4.104-16.416 1.026-23.598-3.078-8.208-8.208-14.364-16.416-17.442-15.39-7.182-33.858 0-41.040 14.364l-28.728-13.338c0 0 0 0 0 0l4.104-9.234c7.182-15.39 1.026-33.858-14.364-40.014-4.104-2.052-8.208-3.078-12.312-3.078-8.208 0-17.442 3.078-22.572 9.234l107.73 175.446 67.716 30.78 28.728-60.534c8.208-16.416 1.026-33.858-14.364-41.040zM666.902 460.677c12.312 0 24.624 2.052 36.936 8.208 20.52 9.234 36.936 26.676 45.144 48.222 7.182 21.546 7.182 46.17-3.078 66.69-13.338 30.78-45.144 50.274-79.002 50.274-12.312 0-24.624-3.078-36.936-8.208-20.52-10.26-36.936-27.702-45.144-49.248-7.182-21.546-7.182-45.144 3.078-66.69 14.364-29.754 45.144-49.248 79.002-49.248zM614.576 565.329c4.104 14.364 15.39 25.65 28.728 31.806 7.182 3.078 15.39 5.13 23.598 5.13 21.546 0 41.040-13.338 50.274-32.832 6.156-13.338 6.156-28.728 2.052-42.066-5.13-14.364-15.39-25.65-28.728-31.806-8.208-3.078-15.39-5.13-23.598-5.13-21.546 0-41.040 13.338-50.274 32.832-6.156 13.338-7.182 28.728-2.052 42.066z" />
<glyph unicode="&#xe80b;" glyph-name="payment_6" d="M827.985 445.287l-255.474 254.448c-14.364 14.364-33.858 22.572-54.378 22.572s-38.988-8.208-53.352-22.572l-439.129-438.103c-29.754-29.754-29.754-77.976 0-107.73l256.5-254.448c14.364-15.39 33.858-22.572 53.352-22.572 20.52 0 38.988 7.182 54.378 22.572l438.103 437.077c29.754 30.78 29.754 77.976 0 108.756zM44.118 172.371c-19.494 19.494-19.494 51.3 0 71.82l439.129 438.103c9.234 9.234 22.572 15.39 34.884 15.39 14.364 0 26.676-6.156 35.91-15.39l9.234-9.234-509.923-509.923-9.234 9.234zM71.82 144.669l509.923 509.923 47.196-47.196-509.923-509.923-47.196 47.196zM809.517 354.999l-438.103-438.103c-19.494-19.494-52.326-19.494-71.82 0l-162.108 162.108 509.923 509.923 162.108-162.108c20.52-19.494 20.52-52.326 0-71.82zM314.983 74.9l-29.754-29.754c-5.13-5.13-5.13-13.338 0-18.468 3.078-3.078 5.13-4.104 9.234-4.104 3.078 0 6.156 2.052 8.208 4.104l30.78 29.754c4.104 5.13 4.104 13.338 0 18.468s-12.312 5.13-18.468 0zM396.037 155.955l-29.754-30.78c-5.13-4.104-5.13-12.312 0-18.468 2.052-2.052 5.13-3.078 8.208-3.078 4.104 0 7.182 1.026 9.234 3.078l29.754 30.78c5.13 4.104 5.13 12.312 0 18.468-4.104 4.104-12.312 4.104-17.442 0zM477.091 235.983l-29.754-29.754c-5.13-5.13-5.13-13.338 0-18.468 3.078-3.078 5.13-3.078 9.234-3.078 3.078 0 6.156 1.026 8.208 3.078l30.78 29.754c4.104 5.13 4.104 13.338 0 18.468-5.13 5.13-13.338 5.13-18.468 0zM585.848 443.235c-8.208-9.234-14.364-19.494-18.468-30.78-11.286-4.104-21.546-10.26-30.78-18.468-31.806-32.832-31.806-84.132 0-115.938 16.416-15.39 36.936-23.598 58.482-23.598s42.066 8.208 58.482 23.598c8.208 9.234 14.364 19.494 18.468 29.754 11.286 4.104 21.546 10.26 30.78 19.494 31.806 31.806 31.806 83.106 0 115.938-32.832 30.78-85.158 30.78-116.964 0zM635.096 296.517c-22.572-21.546-57.456-21.546-80.028 0-21.546 21.546-21.546 57.456 0 79.002 2.052 2.052 5.13 4.104 7.182 6.156 1.026-20.52 9.234-38.988 23.598-54.378 15.39-15.39 34.884-22.572 55.404-23.598-2.052-3.078-4.104-5.13-6.156-7.182zM650.486 329.349c-16.416-2.052-33.858 3.078-46.17 15.39s-18.468 30.78-16.416 47.196c16.416 2.052 33.858-4.104 47.196-16.416 12.312-12.312 17.442-29.754 15.39-46.17zM683.318 344.739c-2.052-2.052-5.13-4.104-7.182-5.13 0 19.494-8.208 38.988-23.598 54.378-15.39 14.364-34.884 22.572-54.378 23.598 2.052 2.052 3.078 5.13 5.13 7.182 21.546 21.546 57.456 21.546 79.002 0 22.572-22.572 22.572-57.456 1.026-80.028zM168.264 562.251c93.366 0 168.264 74.898 168.264 168.264 0 92.34-75.924 167.238-168.264 167.238-93.366 0-168.264-74.898-168.264-168.264 0-92.34 74.898-167.238 168.264-167.238zM168.264 872.105c79.002 0 142.614-63.612 142.614-141.588 0-79.002-63.612-142.614-142.614-142.614-79.002-1.026-142.614 63.612-142.614 141.588 0 79.002 63.612 142.614 142.614 142.614zM107.73 724.36h11.286c-3.078-25.65-10.26-53.352-22.572-70.794-3.078-4.104-3.078-9.234-1.026-13.338s7.182-6.156 12.312-6.156h107.73c7.182 0 13.338 5.13 13.338 12.312s-6.156 13.338-13.338 13.338h-87.21c9.234 19.494 14.364 44.118 16.416 65.664h36.936c7.182 0 13.338 5.13 13.338 13.338 0 6.156-5.13 12.312-13.338 12.312h-33.858c1.026 14.364 1.026 23.598 1.026 24.624 0 18.468 15.39 32.832 32.832 32.832 18.468 0 32.832-14.364 32.832-32.832 0-6.156 6.156-12.312 13.338-12.312s13.338 5.13 13.338 12.312c0 32.832-26.676 59.508-59.508 59.508-31.806 0-58.482-26.676-58.482-58.482 0-6.156-1.026-14.364-1.026-24.624h-14.364c-7.182 0-13.338-5.13-13.338-13.338s5.13-14.364 13.338-14.364zM770.528 585.849c26.676-16.416 57.456-24.624 87.21-24.624 13.338 0 27.702 1.026 40.014 5.13 44.118 10.26 81.054 36.936 104.652 75.924 47.196 79.002 22.572 182.628-57.456 229.824-79.002 48.222-182.628 22.572-230.85-56.43-23.598-37.962-29.754-83.106-19.494-127.224 10.26-42.066 37.962-79.002 75.924-102.6zM735.644 803.362c26.676 44.118 73.872 68.742 122.094 68.742 25.65 0 50.274-7.182 73.872-20.52 66.69-41.040 89.262-129.276 48.222-195.966-20.52-32.832-51.3-55.404-88.236-64.638-36.936-8.208-74.898-3.078-107.73 16.416-32.832 20.52-55.404 51.3-64.638 88.236-8.208 36.936-3.078 75.924 16.416 107.73zM756.164 679.216l92.34-56.43c2.052-1.026 4.104-2.052 6.156-2.052 4.104 0 9.234 2.052 11.286 6.156 3.078 6.156 2.052 13.338-4.104 17.442l-73.872 45.144c17.442 12.312 33.858 30.78 48.222 47.196l30.78-19.494c2.052-1.026 4.104-2.052 7.182-2.052 4.104 0 9.234 2.052 11.286 6.156 3.078 6.156 2.052 13.338-4.104 17.442l-29.754 18.468c8.208 11.286 13.338 19.494 13.338 20.52 10.26 15.39 29.754 20.52 45.144 10.26 8.208-4.104 13.338-11.286 15.39-20.52 2.052-8.208 1.026-16.416-4.104-24.624-3.078-6.156-2.052-13.338 4.104-17.442 6.156-3.078 13.338-2.052 17.442 4.104 8.208 13.338 10.26 29.754 7.182 44.118-3.078 15.39-13.338 28.728-26.676 36.936-27.702 16.416-63.612 7.182-81.054-20.52-2.052-4.104-7.182-12.312-13.338-20.52l-12.312 8.208c-6.156 3.078-13.338 2.052-17.442-4.104s-2.052-14.364 4.104-18.468l10.26-6.156c-16.416-20.52-36.936-41.040-55.404-49.248-4.104-2.052-8.208-6.156-8.208-10.26 0-3.078 2.052-8.208 6.156-10.26zM996.249 135.435c-24.624 36.936-63.612 61.56-107.73 69.768s-89.262-2.052-126.198-26.676c-75.924-53.352-95.418-158.004-43.092-233.928 32.832-47.196 85.158-71.82 138.51-71.82 32.832 0 65.664 9.234 95.418 28.728 75.924 52.326 96.444 156.978 43.092 233.928v0zM938.793-77.974c-31.806-20.52-69.768-28.728-106.704-22.572-37.962 7.182-69.768 28.728-92.34 59.508-20.52 31.806-28.728 69.768-22.572 106.704 7.182 37.962 28.728 69.768 59.508 92.34 24.624 16.416 52.326 24.624 80.028 24.624 9.234 0 18.468 0 26.676-2.052 36.936-7.182 69.768-28.728 91.314-59.508 45.144-65.664 28.728-153.9-35.91-199.044zM936.741 8.21l-71.82-48.222c-4.104 21.546-13.338 44.118-23.598 62.586l29.754 20.52c6.156 4.104 8.208 12.312 4.104 18.468s-12.312 7.182-18.468 3.078l-27.702-19.494c-7.182 12.312-12.312 20.52-13.338 21.546-4.104 7.182-6.156 15.39-5.13 24.624s6.156 16.416 13.338 21.546c8.208 4.104 16.416 6.156 24.624 5.13 9.234-1.026 16.416-6.156 21.546-13.338 4.104-6.156 12.312-8.208 17.442-4.104 6.156 4.104 8.208 12.312 4.104 18.468-9.234 12.312-22.572 21.546-37.962 24.624-15.39 2.052-30.78-1.026-44.118-10.26-12.312-8.208-21.546-21.546-24.624-36.936-2.052-15.39 1.026-30.78 10.26-44.118 3.078-5.13 8.208-12.312 12.312-21.546l-12.312-8.208c-6.156-4.104-7.182-12.312-3.078-17.442 3.078-3.078 7.182-5.13 10.26-5.13s5.13 0 7.182 2.052l10.26 6.156c11.286-22.572 21.546-50.274 21.546-70.794 0-5.13 3.078-9.234 7.182-11.286 2.052-1.026 4.104-2.052 6.156-2.052s4.104 1.026 7.182 2.052l89.262 61.56c6.156 4.104 7.182 12.312 3.078 17.442-3.078 5.13-11.286 7.182-17.442 3.078z" />
<glyph unicode="&#xe80c;" glyph-name="phone-rotary" d="M513.001 416.559c-88.396 0-160.056-71.66-160.056-160.056s71.66-160.056 160.056-160.056c88.396 0 160.056 71.66 160.056 160.056v0c0 88.396-71.66 160.056-160.056 160.056v0zM513.001 160.059c-53.265 0-96.444 43.179-96.444 96.444s43.179 96.444 96.444 96.444c53.265 0 96.444-43.179 96.444-96.444v0c0-53.265-43.179-96.444-96.444-96.444v0zM742.826 513.003c-22.519 38.894-63.934 64.639-111.364 64.639-0.165 0-0.331 0-0.496-0.001h-235.954c-47.214-0.21-88.38-25.901-110.479-64.023l-0.329-0.616-211.356-370.387c-5.164-9.079-8.209-19.945-8.209-31.525 0-0.099 0-0.197 0.001-0.296v0.015-110.808c0-0.002 0-0.005 0-0.008 0-35.338 28.358-64.053 63.558-64.629l0.054-0.001h769.502c35.699 0 64.638 28.939 64.638 64.638v0 110.808c-0.285 11.786-3.683 22.722-9.395 32.090l0.161-0.284zM897.753 0.002h-769.502v110.808l211.356 370.387c11.403 19.092 31.919 31.703 55.389 31.806h235.995c23.485-0.103 44.001-12.714 55.241-31.512l0.163-0.294 211.356-370.387zM1002.405 660.748c-137.484 110.808-310.879 173.394-489.403 173.394s-351.919-62.586-489.403-173.394c-14.456-11.944-23.599-29.873-23.599-49.939 0-0.118 0-0.235 0.001-0.353v0.018-129.276c0-17.566 14.24-31.806 31.806-31.806v0h140.562c0.104-0.001 0.226-0.002 0.349-0.002 12.327 0 23.015 7.013 28.296 17.266l0.083 0.178 55.404 126.198c80.028 34.884 167.238 48.222 256.5 48.222s176.472-13.338 256.5-48.222l55.404-126.198c5.363-10.431 16.053-17.444 28.379-17.444 0.123 0 0.245 0.001 0.367 0.002h140.543c17.566 0 31.806 14.24 31.806 31.806v0 129.276c0.001 0.099 0.001 0.217 0.001 0.335 0 20.066-9.143 37.995-23.49 49.852l-0.109 0.087zM962.391 513.003h-88.236l-46.17 105.678-9.234 23.598-23.598 10.26c-83.106 35.91-175.446 53.352-282.151 53.352s-199.044-17.442-282.151-53.352l-22.572-10.26-10.26-23.598-46.17-105.678h-88.236v97.47c121.869 98.57 278.581 158.442 449.259 159.030h0.13c170.852-0.236 327.658-60.179 450.718-160.075l-1.328 1.045z" />
<glyph unicode="&#xe80d;" glyph-name="rings-wedding" d="M704.864 575.589c13.125-20.533 25.194-44.185 34.936-69.004l0.974-2.816c126.198-29.754 221.616-143.64 221.616-279.073 0-159.030-130.302-289.333-289.333-289.333s-288.307 130.302-288.307 289.333c0 133.38 91.314 243.162 214.434 275.995 25.65-43.092 42.066-93.366 42.066-147.744 0-110.808-62.586-205.2-153.9-253.422 13.135-18.918 28.388-35.149 45.705-48.892l0.465-0.356c102.6 61.56 172.368 173.394 172.368 302.671 0 152.874-98.496 283.177-233.928 331.399l85.158 125.172-122.094 88.236h-165.186l-121.068-88.236 85.158-125.172c-136.458-48.222-233.928-178.524-233.928-331.399 0-194.926 158.018-352.945 352.945-352.945v0c0.162 0 0.354 0 0.548 0 16.090 0 31.917 1.119 47.41 3.283l-1.789-0.204c65.224-79.839 163.679-130.403 273.944-130.403 194.601 0 352.417 157.492 352.944 351.969v0.050c0 183.654-141.588 335.503-321.139 350.893zM237.006 794.128l54.378 40.014h123.12l54.378-40.014-63.612-93.366c-15.459 2.839-33.509 4.687-51.907 5.122l-0.419 0.008c-18.817-0.443-36.866-2.291-54.461-5.447l2.135 0.317zM352.945 64.64c-159.030 0-288.307 129.276-288.307 288.307s129.276 288.307 288.307 288.307c0.008 0 0.017 0 0.026 0 79.834 0 152.062-32.565 204.126-85.135l0.022-0.023c-137.484-48.222-235.98-177.498-235.98-331.399-0.002-0.387-0.002-0.847-0.002-1.306 0-57.921 14.034-112.563 38.885-160.713l-0.921 1.963c-2.052 0-4.104 0-6.156 0z" />
<glyph unicode="&#xe80e;" glyph-name="rocket" d="M1012.665 858.767c-2.801 12.645-12.841 22.341-25.458 24.596l-0.192 0.028c-64.638 14.364-115.938 14.364-167.238 14.364-207.252 0-332.425-110.808-426.817-256.5h-203.148c-37.118-0.447-69.147-21.795-84.906-52.805l-0.252-0.549-99.522-198.018c-2.895-6.011-4.584-13.070-4.584-20.523 0-26.441 21.281-47.912 47.648-48.219h185.735l-21.546-43.092c-4.245-8.297-6.734-18.1-6.734-28.483 0-17.77 7.287-33.839 19.036-45.38l107.739-107.739c11.626-11.398 27.561-18.442 45.139-18.468h0.005c0.415-0.010 0.905-0.015 1.395-0.015 9.934 0 19.335 2.276 27.711 6.337l-0.378-0.165 43.092 21.546v-185.706c0-0.003 0-0.007 0-0.011 0-26.272 21.009-47.636 47.143-48.21l0.053-0.001c0.043 0 0.095 0 0.146 0 7.81 0 15.175 1.897 21.662 5.254l-0.263-0.124 198.018 98.496c31.855 16.166 53.313 48.664 53.352 86.179v203.153c145.692 94.392 256.5 219.564 256.5 426.817 0 51.3 0 101.574-13.338 167.238zM256.5 384.753h-182.628l87.21 174.42c5.146 10.95 16.059 18.408 28.72 18.468h171.35c-28.728-56.43-63.612-128.25-95.418-192.888zM704.864 61.562c0.001-0.104 0.002-0.226 0.002-0.349 0-12.327-7.013-23.015-17.266-28.296l-0.178-0.083-174.42-87.21v191.862c64.638 31.806 136.458 66.69 191.862 95.418zM734.618 319.089c-79.002-40.014-272.917-135.432-357.049-177.498l-107.73 107.73c42.066 85.158 137.484 278.047 177.498 357.049 100.548 156.978 215.46 227.772 372.439 227.772 43.092 0 84.132 0 133.38-9.234 9.234-49.248 9.234-90.288 9.234-133.38 0-156.978-70.794-271.891-227.772-372.439zM737.696 737.698c-70.83 0-128.25-57.42-128.25-128.25s57.42-128.25 128.25-128.25c70.83 0 128.25 57.42 128.25 128.25v0c0 70.83-57.42 128.25-128.25 128.25v0zM737.696 544.809c-0.305-0.005-0.666-0.008-1.026-0.008-35.699 0-64.638 28.939-64.638 64.638s28.939 64.638 64.638 64.638c35.696 0 64.633-28.934 64.638-64.629v0c0-0.002 0-0.005 0-0.008 0-35.338-28.358-64.053-63.558-64.629l-0.054-0.001z" />
<glyph unicode="&#xe80f;" glyph-name="shapes" d="M962.391 321.141h-321.139c-34.884 0-63.612-28.728-63.612-64.638v-321.139c0-34.884 28.728-63.612 63.612-63.612h321.139c34.884 0 63.612 28.728 63.612 63.612v321.139c0 35.91-28.728 64.638-63.612 64.638zM962.391-64.636h-321.139v321.139h321.139v-321.139zM256.5 384.753c-141.588 0-256.5-114.912-256.5-256.5s114.912-256.5 256.5-256.5 256.5 114.912 256.5 256.5-114.912 256.5-256.5 256.5zM256.5-64.636c-105.678 0-191.862 87.21-191.862 192.888s86.184 192.888 191.862 192.888c105.678 0 192.888-87.21 192.888-192.888s-87.21-192.888-192.888-192.888zM1015.743 494.535l-214.434 366.283c-13.338 24.624-38.988 36.936-63.612 36.936s-50.274-12.312-64.638-36.936l-214.434-366.283c-27.702-48.222 7.182-109.782 64.638-109.782h428.869c56.43 0 92.34 61.56 63.612 109.782zM960.339 453.495c-1.026-3.078-4.104-4.104-8.208-4.104h-428.869c-4.104 0-7.182 1.026-9.234 4.104-2.052 5.13 0 7.182 0 9.234l214.434 366.283c2.052 3.078 5.13 5.13 9.234 5.13s7.182-2.052 8.208-5.13l214.434-366.283c1.026-2.052 3.078-4.104 0-9.234z" />
<glyph unicode="&#xe810;" glyph-name="tire" d="M513.001 897.755c-283.177 0-513.001-229.824-513.001-513.001s229.824-513.001 513.001-513.001 513.001 229.824 513.001 513.001-229.824 513.001-513.001 513.001zM513.001-64.636c-247.266 0-448.363 202.122-448.363 449.389s201.096 449.389 448.363 449.389 449.389-202.122 449.389-449.389-202.122-449.389-449.389-449.389zM513.001 705.892c-177.498 0-320.113-143.64-320.113-321.139s142.614-320.113 320.113-320.113 321.139 142.614 321.139 320.113-143.64 321.139-321.139 321.139zM513.001 641.253c45.144 0 86.184-12.312 123.12-32.832l-75.924-103.626c-14.364 6.156-30.78 9.234-47.196 9.234s-32.832-3.078-47.196-9.234l-75.924 103.626c36.936 20.52 77.976 32.832 123.12 32.832zM256.5 384.753c0 73.872 31.806 139.536 81.054 186.732l75.924-104.652c-18.468-22.572-29.754-50.274-29.754-82.080 0-3.078 1.026-5.13 1.026-8.208l-123.12-40.014c-3.078 15.39-5.13 31.806-5.13 48.222zM481.195 131.331c-88.449 11.518-161.798 66.834-198.382 143.131l-0.664 1.535 122.094 40.014c17.442-27.702 44.118-48.222 76.95-56.43v-128.25zM449.389 384.753c0 35.91 28.728 64.638 63.612 64.638s64.638-28.728 64.638-64.638-28.728-63.612-64.638-63.612-63.612 28.728-63.612 63.612zM544.808 131.331v128.25c32.832 8.208 59.508 28.728 76.95 56.43l123.12-40.014c-37.426-78.087-111.21-133.491-198.812-144.537l-1.258-0.129zM641.252 376.545c1.026 3.078 1.026 5.13 1.026 8.208 0 31.806-11.286 59.508-29.754 82.080l75.924 104.652c49.248-47.196 81.054-112.86 81.054-186.732 0-16.416-2.052-32.832-5.13-48.222l-123.12 40.014z" />
<glyph unicode="&#xe811;" glyph-name="tracking_1" horiz-adv-x="1062" d="M136.458 812.596v0c-14.364 0-26.676-11.286-26.676-24.624s12.312-24.624 25.65-24.624h1.026c13.338 0 24.624 11.286 24.624 24.624s-11.286 24.624-24.624 24.624zM368.335 812.596v0c-15.39 0-26.676-11.286-26.676-24.624s11.286-24.624 24.624-24.624h2.052c13.338 0 24.624 11.286 24.624 24.624s-11.286 24.624-24.624 24.624zM252.396 812.596v0c-14.364 0-26.676-11.286-26.676-24.624s12.312-24.624 24.624-24.624h2.052c13.338 0 24.624 11.286 24.624 24.624s-11.286 24.624-24.624 24.624zM664.85 137.487h-615.602v539.678h843.375v-288.307c0-13.338 12.312-24.624 24.624-24.624s25.65 11.286 25.65 24.624v508.897h-942.897v-807.465h664.85c13.338 0 24.624 11.286 24.624 24.624s-11.286 22.572-24.624 22.572zM49.248 848.506h843.375v-122.094h-843.375v122.094zM165.186 288.309c0-10.26 6.156-17.442 13.338-21.546l220.59-105.678c4.104-2.052 7.182-2.052 11.286-2.052s7.182 2.052 9.234 2.052c0 0 0 0 0 0l220.59 103.626c8.208 4.104 13.338 13.338 13.338 21.546v234.954c0 0 0 0 0 0 0 10.26-5.13 17.442-13.338 21.546l-220.59 104.652c-7.182 3.078-15.39 3.078-20.52 0l-220.59-102.6c0 0-2.052 0-2.052-2.052 0 0 0 0 0 0s0 0 0 0c-2.052 0-2.052-2.052-3.078-4.104 0 0 0 0-2.052-2.052s-2.052-2.052-2.052-4.104c0 0 0-1.026 0-1.026 0-2.052-2.052-2.052-2.052-4.104s0-4.104 0-4.104c0 0 0-2.052 0-2.052s0 0 0 0 0 0 0 0v-232.902zM606.368 302.673l-171.342-81.054v180.576l120.042 56.43 53.352 24.624v-180.576zM573.536 521.211l-31.806-14.364-131.328-63.612-53.352 25.65 163.134 76.95 53.352-24.624zM410.401 599.187l53.352-24.624-163.134-77.976-53.352 24.624 163.134 77.976zM214.434 483.249l171.342-81.054v-180.576l-171.342 81.054v180.576zM340.633 388.857l-64.638 29.754c-12.312 6.156-26.676 0-32.832-11.286-5.13-11.286 0-26.676 11.286-31.806l64.638-30.78c4.104-2.052 8.208-2.052 11.286-2.052 10.26 0 17.442 6.156 22.572 13.338 4.104 11.286-1.026 26.676-12.312 32.832zM1054.731 152.877l-279.073 281.125c-8.208 8.208-17.442 9.234-26.676 6.156-10.26-4.104-15.39-13.338-15.39-22.572v-393.985c0-9.234 5.13-18.468 15.39-22.572 3.078-2.052 5.13-2.052 9.234-2.052 5.13 0 11.286 2.052 17.442 6.156l92.34 85.158 89.262-203.148c4.104-9.234 13.338-15.39 23.598-15.39 3.078 0 5.13 0 9.234 2.052 13.338 5.13 18.468 18.468 13.338 31.806l-89.262 202.122 125.172 3.078c9.234 0 19.494 6.156 22.572 15.39 2.052 9.234 0 21.546-7.182 26.676zM876.207 154.929c-6.156 0-11.286-2.052-15.39-6.156l-75.924-69.768v279.073l196.992-196.992-105.678-6.156z" />
<glyph unicode="&#xe812;" glyph-name="tracking_2" horiz-adv-x="965" d="M483.247 325.245h101.574c15.39 0 25.65 10.26 25.65 24.624v100.548c0 14.364-10.26 25.65-25.65 25.65h-101.574c-15.39 0-25.65-11.286-25.65-25.65v-100.548c0-14.364 10.26-24.624 25.65-24.624zM507.871 425.793h50.274v-50.274h-50.274v50.274zM838.245 122.096h-102.6c-14.364 0-24.624-10.26-24.624-24.624v-100.548c0-14.364 10.26-24.624 24.624-24.624h102.6c14.364 0 24.624 10.26 24.624 24.624v100.548c0 14.364-10.26 24.624-24.624 24.624zM812.595 22.574h-50.274v50.274h50.274v-50.274zM862.869 349.869v100.548c0 14.364-10.26 25.65-24.624 25.65h-75.924v-50.274h50.274v-50.274h-50.274v-50.274h75.924c14.364 0 24.624 10.26 24.624 24.624zM532.496 200.073c0-14.364 11.286-25.65 25.65-25.65h50.274v50.274h-25.65v25.65c0 14.364-10.26 24.624-24.624 24.624h-102.6v-50.274h74.898v-24.624zM483.247-27.7h74.898v50.274h-50.274v50.274h50.274v49.248h-74.898c-15.39 0-25.65-10.26-25.65-24.624v-100.548c0-14.364 10.26-24.624 25.65-24.624zM711.020 476.067h-50.274v-50.274h50.274v50.274zM711.020 375.519h-50.274v-50.274h50.274v50.274zM812.595 174.423h50.274v100.548h-50.274v-100.548zM760.268 274.971h-49.248v-50.274h49.248v50.274zM711.020 224.697h-50.274v-50.274h50.274v50.274zM608.42 72.848h50.274v49.248h-50.274v-49.248zM608.42-27.7h50.274v50.274h-50.274v-50.274zM938.793 577.641h-330.373v201.096c0 14.364-10.26 24.624-25.65 24.624h-191.862l58.482 58.482-35.91 35.91-101.574-100.548c-11.286-10.26-11.286-24.624 0-34.884l101.574-100.548 35.91 35.91-58.482 58.482h167.238v-176.472h-177.498c-15.39 0-25.65-10.26-25.65-24.624v-656.642c0-14.364 10.26-24.624 25.65-24.624h558.146c14.364 0 24.624 10.26 24.624 24.624v654.59c2.052 12.312-10.26 24.624-24.624 24.624zM913.143-77.974h-507.871v606.368h507.871v-606.368zM24.624 425.793h50.274v-50.274h50.274v50.274h50.274c14.364 0 25.65 10.26 25.65 24.624v150.822c0 14.364-11.286 24.624-25.65 24.624h-125.172v102.6h102.6v-50.274h50.274v75.924c0 14.364-11.286 24.624-25.65 24.624h-50.274v50.274h-52.326v-50.274h-50.274c-14.364 0-24.624-10.26-24.624-24.624v-150.822c0-14.364 10.26-25.65 24.624-25.65h128.25v-99.522h-102.6v50.274h-50.274v-75.924c0-14.364 10.26-26.676 24.624-26.676zM195.966 166.215l-34.884-34.884 58.482-58.482h-167.238v227.772h-52.326v-253.422c0-14.364 10.26-24.624 24.624-24.624h192.888l-58.482-58.482 34.884-35.91 102.6 100.548c10.26 10.26 10.26 24.624 0 34.884l-100.548 102.6z" />
<glyph unicode="&#xe813;" glyph-name="tracking_3" horiz-adv-x="1087" d="M975.729 808.492h-273.943c-31.806 54.378-89.262 89.262-158.004 89.262-67.716 0-128.25-36.936-159.030-91.314v2.052h-271.891c-62.586 0-112.86-50.274-112.86-110.808v-578.666c0-62.586 50.274-110.808 112.86-110.808h295.489c-8.208-33.858-19.494-64.638-41.040-90.288h-50.274v-44.118h452.467v44.118h-50.274c-21.546 25.65-32.832 56.43-41.040 90.288h295.489c62.586 0 112.86 50.274 112.86 110.808v578.666c2.052 60.534-49.248 110.808-110.808 110.808zM543.782 852.61c75.924 0 136.458-59.508 136.458-133.38s-60.534-134.406-136.458-134.406c-75.924 0-135.432 60.534-135.432 134.406s59.508 133.38 135.432 133.38zM402.193 608.421c32.832-41.040 84.132-66.69 141.588-66.69 56.43 0 108.756 25.65 142.614 66.69h56.43l-35.91-134.406h-326.269l-34.884 134.406h56.43zM423.739-83.104c15.39 28.728 25.65 57.456 30.78 89.262h178.524c6.156-31.806 18.468-60.534 31.806-89.262h-241.11zM1043.445 116.966c0-36.936-30.78-66.69-67.716-66.69h-862.869c-36.936 0-67.716 29.754-67.716 66.69v65.664h996.249v-65.664zM1043.445 229.827h-998.301v467.857c0 36.936 30.78 65.664 67.716 65.664h256.5c-4.104-13.338-6.156-28.728-6.156-44.118 0-23.598 4.104-47.196 13.338-66.69h-42.066l-17.442 51.3c-4.104 9.234-12.312 15.39-21.546 15.39h-91.314v-45.144h73.872l17.442-50.274 44.118-174.42v-109.782c0-11.286 10.26-20.52 23.598-20.52h25.65c9.234-25.65 34.884-45.144 63.612-45.144s54.378 19.494 64.638 45.144h75.924c9.234-25.65 34.884-45.144 63.612-45.144 29.754 0 54.378 19.494 64.638 45.144h26.676v44.118h-26.676c-10.26 25.65-34.884 45.144-64.638 45.144-28.728 0-54.378-19.494-63.612-45.144h-75.924c-10.26 25.65-34.884 45.144-64.638 45.144s-54.378-19.494-63.612-45.144h-4.104v66.69h339.607c10.26 0 19.494 7.182 21.546 17.442l45.144 178.524c0 2.052 0 4.104 0 6.156 0 11.286-10.26 20.52-23.598 20.52h-58.482c8.208 21.546 14.364 43.092 14.364 66.69 0 15.39-2.052 30.78-6.156 44.118h254.448c36.936 0 67.716-28.728 67.716-65.664v-467.857zM431.947 339.609c0 12.312 9.234 21.546 22.572 21.546 12.312 0 23.598-9.234 23.598-21.546 0-11.286-10.26-20.52-23.598-20.52s-22.572 9.234-22.572 20.52zM635.096 339.609c0 12.312 10.26 21.546 23.598 21.546 11.286 0 23.598-9.234 23.598-21.546 0-11.286-10.26-20.52-23.598-20.52s-23.598 9.234-23.598 20.52zM612.524 139.539h-136.458v-44.118h136.458v44.118zM521.209 754.114v-124.146h44.118v124.146l29.754-29.754 30.78 31.806-67.716 65.664c-10.26 8.208-23.598 8.208-31.806 0l-67.716-65.664 30.78-31.806 31.806 29.754zM975.729 629.967h-136.458v-45.144h112.86v-223.668h-159.030v-44.118h180.576c11.286 0 23.598 9.234 23.598 21.546v269.839c0 11.286-10.26 21.546-21.546 21.546zM136.458 584.823h111.834v45.144h-135.432c-11.286 0-23.598-10.26-23.598-21.546v-268.813c0-11.286 10.26-20.52 23.598-20.52h180.576v44.118h-156.978v221.616z" />
<glyph unicode="&#xe814;" glyph-name="tshirt" horiz-adv-x="1217" d="M1214.787 674.086c-5.13 15.39-15.39 28.728-29.754 35.91l-375.517 187.758-16.416-22.572c-30.78-44.118-103.626-71.82-183.654-71.82s-152.874 27.702-184.68 71.82l-15.39 22.572-375.517-187.758c-14.364-7.182-25.65-20.52-30.78-35.91s-4.104-31.806 3.078-47.196l103.626-208.278c7.182-14.364 19.494-25.65 34.884-30.78s32.832-4.104 47.196 3.078l96.444 48.222v-476.065c0-50.274 41.040-91.314 90.288-91.314h461.701c49.248 0 89.262 41.040 89.262 91.314v476.065l97.47-48.222c14.364-7.182 30.78-8.208 47.196-3.078 15.39 5.13 27.702 16.416 34.884 30.78l102.6 208.278c7.182 15.39 9.234 31.806 3.078 47.196zM1055.757 449.391l-189.81 93.366v-580.718c0-14.364-11.286-25.65-25.65-25.65h-461.701c-14.364 0-25.65 11.286-25.65 25.65v580.718l-185.706-95.418-104.652 204.174 328.321 165.186c48.222-49.248 129.276-77.976 218.538-77.976s170.316 28.728 218.538 77.976l325.243-163.134-97.47-204.174z" />
<glyph unicode="&#xe815;" glyph-name="tv" horiz-adv-x="1282" d="M1186.059 897.755h-1089.615c-53.352 0-96.444-43.092-96.444-96.444v-641.252c0-52.326 43.092-95.418 96.444-95.418h513.001v-129.276h-321.139c-17.442 0-31.806-14.364-31.806-31.806s14.364-31.806 31.806-31.806h705.89c17.442 0 31.806 14.364 31.806 31.806s-14.364 31.806-31.806 31.806h-321.139v129.276h513.001c53.352 0 96.444 43.092 96.444 95.418v641.252c0 53.352-43.092 96.444-96.444 96.444zM1218.891 160.059c0-17.442-15.39-31.806-32.832-31.806h-1089.615c-17.442 0-31.806 14.364-31.806 31.806v641.252c0 17.442 14.364 32.832 31.806 32.832h1089.615c17.442 0 32.832-15.39 32.832-32.832v-641.252z" />
<glyph unicode="&#xe816;" glyph-name="volleyball-ball" horiz-adv-x="993" d="M496.585 881.339c-273.943 0-496.585-222.642-496.585-496.585s222.642-496.585 496.585-496.585 497.611 222.642 497.611 496.585-222.642 496.585-497.611 496.585zM841.323 124.148c-171.342-45.144-352.945-9.234-495.559 94.392 42.066 51.3 94.392 94.392 152.874 129.276 169.29-94.392 320.113-90.288 415.531-75.924-14.364-54.378-38.988-103.626-72.846-147.744zM927.507 338.583c-49.248-9.234-98.496-12.312-146.718-9.234 17.442 163.134-27.702 326.269-124.146 457.597 119.016-47.196 297.541-196.992 270.865-448.363zM549.938 813.622c125.172-125.172 185.706-300.619 167.238-477.091-65.664 11.286-129.276 34.884-188.784 67.716-2.052 145.692-51.3 285.229-142.614 399.115 81.054 20.52 139.536 13.338 164.16 10.26zM322.165 779.764c31.806-36.936 59.508-77.976 81.054-121.068-149.796-66.69-268.813-186.732-334.477-335.503-41.040 282.151 178.524 423.739 253.422 456.571zM98.496 215.463c47.196 171.342 168.264 311.905 330.373 383.725 22.572-62.586 34.884-129.276 35.91-196.992-126.198-74.898-221.616-187.758-274.969-322.165-37.962 38.988-69.768 84.132-91.314 135.432zM242.136 35.912c16.416 46.17 37.962 90.288 64.638 130.302 95.418-68.742 251.37-143.64 457.597-121.068-104.652-83.106-322.165-155.952-522.235-9.234z" />
<glyph unicode="&#xe817;" glyph-name="adobe" horiz-adv-x="924" d="M580.718 768.478h342.685v-769.502zM342.685 768.478h-342.685v-769.502zM461.701 484.275l215.46-485.299h-146.718l-61.56 153.9h-156.978z" />
<glyph unicode="&#xe818;" glyph-name="amazon" horiz-adv-x="898" d="M515.053 571.485c-97.47-3.078-339.607-30.78-339.607-234.954 0-219.564 277.021-228.798 368.335-87.21 12.312-20.52 70.794-74.898 90.288-93.366l113.886 111.834s-64.638 51.3-64.638 106.704v294.463c0 50.274-49.248 165.186-224.694 165.186-176.472 0-269.839-110.808-269.839-209.304l146.718-13.338c32.832 98.496 108.756 98.496 108.756 98.496 82.080 0 70.794-59.508 70.794-138.51zM515.053 398.091c0-161.082-168.264-136.458-168.264-34.884 0 94.392 101.574 113.886 168.264 115.938v-81.054zM787.971 69.77c-15.39-19.494-140.562-134.406-349.867-134.406s-369.361 143.64-418.609 203.148c-13.338 15.39 2.052 22.572 11.286 16.416 146.718-89.262 376.543-235.98 745.904-60.534 15.39 7.182 26.676-4.104 11.286-24.624zM867.999 65.666c-13.338-31.806-31.806-53.352-43.092-62.586-10.26-8.208-18.468-5.13-12.312 8.208s37.962 93.366 24.624 109.782c-12.312 17.442-73.872 9.234-95.418 7.182s-26.676-4.104-28.728 0c-4.104 11.286 44.118 31.806 75.924 34.884 30.78 4.104 82.080 2.052 91.314-11.286 8.208-10.26 0-54.378-12.312-86.184z" />
<glyph unicode="&#xe819;" glyph-name="android" horiz-adv-x="898" d="M179.55 488.379v-232.902c0-30.78-24.624-55.404-55.404-55.404s-59.508 25.65-59.508 55.404v232.902c0 29.754 28.728 54.378 59.508 54.378s55.404-24.624 55.404-54.378zM201.096 173.397c0-32.832 26.676-59.508 59.508-59.508h40.014v-122.094c0-73.872 110.808-73.872 110.808 0v122.094h74.898v-122.094c0-73.872 110.808-73.872 110.808 0v122.094h41.040c31.806 0 58.482 26.676 58.482 59.508v359.101h-495.559v-359.101zM698.708 551.991h-499.663c0 86.184 51.3 161.082 127.224 199.044l-37.962 70.794c-6.156 10.26 8.208 16.416 13.338 8.208l38.988-71.82c69.768 31.806 149.796 29.754 216.486 0l38.988 71.82c5.13 8.208 19.494 2.052 13.338-8.208l-37.962-70.794c75.924-37.962 127.224-112.86 127.224-199.044zM356.023 663.826c0 11.286-9.234 20.52-20.52 20.52-12.312 0-20.52-9.234-20.52-20.52s9.234-21.546 20.52-21.546c11.286 0 20.52 10.26 20.52 21.546zM583.796 663.826c0 11.286-9.234 20.52-20.52 20.52-12.312 0-21.546-9.234-21.546-20.52s9.234-21.546 21.546-21.546c11.286 0 20.52 10.26 20.52 21.546zM773.606 542.757c-30.78 0-55.404-23.598-55.404-54.378v-232.902c0-30.78 24.624-55.404 55.404-55.404s60.534 25.65 60.534 55.404v232.902c0 30.78-29.754 54.378-60.534 54.378z" />
<glyph unicode="&#xe81a;" glyph-name="angular" horiz-adv-x="832" d="M339.607 360.129h152.874l-75.924 183.654zM416.557 834.142l-416.557-149.796 63.612-551.99 352.945-196.992 352.945 196.992 63.612 551.99zM677.162 148.773h-97.47l-52.326 131.328h-221.616l-52.326-131.328h-97.47l260.604 585.848z" />
<glyph unicode="&#xe81b;" glyph-name="apper" horiz-adv-x="1282" d="M84.132 418.611c45.144 0 58.482-5.13 67.716-28.728h1.026v45.144c0 22.572-9.234 30.78-35.91 30.78-22.572 0-28.728-5.13-29.754-25.65h-77.976c1.026 27.702 3.078 38.988 12.312 49.248 14.364 17.442 37.962 23.598 92.34 23.598 65.664 0 94.392-10.26 107.73-37.962 4.104-8.208 8.208-30.78 8.208-47.196v-152.874h-76.95l3.078 37.962h-2.052c-11.286-30.78-27.702-41.040-71.82-41.040-60.534 0-82.080 20.52-82.080 74.898 0 50.274 24.624 71.82 84.132 71.82zM119.016 322.167c25.65 0 33.858 6.156 33.858 26.676 0 18.468-9.234 23.598-40.014 23.598-25.65 0-35.91-6.156-35.91-24.624 0-20.52 8.208-25.65 42.066-25.65zM274.969 511.977h75.924l-2.052-41.040h1.026c18.468 34.884 31.806 42.066 74.898 42.066 28.728 0 50.274-6.156 63.612-18.468 19.494-17.442 25.65-41.040 25.65-96.444 0-59.508-6.156-86.184-24.624-105.678-13.338-14.364-32.832-20.52-66.69-20.52-40.014 0-58.482 11.286-67.716 43.092h-1.026v-141.588h-79.002zM437.077 390.909c0 55.404-7.182 64.638-42.066 64.638-33.858 0-41.040-9.234-41.040-57.456 0-55.404 7.182-66.69 42.066-66.69 32.832 0 41.040 11.286 41.040 59.508zM553.016 511.977h76.95l-3.078-41.040h1.026c18.468 34.884 31.806 42.066 74.898 42.066 29.754 0 50.274-6.156 63.612-18.468 19.494-17.442 25.65-41.040 25.65-96.444 0-59.508-6.156-86.184-24.624-105.678-13.338-14.364-32.832-20.52-66.69-20.52-41.040 0-58.482 11.286-67.716 43.092h-1.026v-141.588h-79.002v338.581zM715.124 390.909c0 55.404-7.182 64.638-42.066 64.638-33.858 0-41.040-9.234-41.040-57.456 0-55.404 7.182-66.69 42.066-66.69 32.832 0 41.040 11.286 41.040 59.508zM822.855 398.091c0 51.3 6.156 75.924 24.624 92.34 17.442 16.416 44.118 22.572 90.288 22.572 86.184 0 111.834-25.65 111.834-111.834v-22.572h-150.822c-1.026-4.104-1.026-7.182-1.026-9.234 0-33.858 9.234-44.118 40.014-44.118 27.702 0 35.91 6.156 35.91 27.702h75.924v-4.104c0-19.494-5.13-37.962-14.364-49.248-14.364-19.494-38.988-27.702-88.236-27.702-55.404 0-84.132 7.182-101.574 24.624s-22.572 43.092-22.572 101.574zM975.729 421.689c-1.026 4.104-1.026 6.156-1.026 7.182 0 24.624-6.156 29.754-38.988 29.754-28.728 0-33.858-6.156-35.91-30.78l-1.026-6.156zM1087.563 511.977h75.924l-3.078-38.988h1.026c14.364 29.754 28.728 40.014 59.508 40.014 21.546 0 38.988-6.156 47.196-18.468 10.26-14.364 13.338-28.728 13.338-68.742 0-2.052 0-9.234 1.026-18.468h-70.794c1.026 4.104 1.026 7.182 1.026 8.208 0 30.78-4.104 38.988-20.52 38.988-13.338 0-21.546-6.156-26.676-18.468-2.052-6.156-2.052-9.234-2.052-24.624v-136.458h-76.95v237.006z" />
<glyph unicode="&#xe81c;" glyph-name="apple" horiz-adv-x="755" d="M630.992 359.103c-1.026 73.872 32.832 129.276 99.522 170.316-36.936 53.352-94.392 83.106-169.29 89.262-70.794 5.13-148.77-41.040-177.498-41.040-29.754 0-98.496 38.988-152.874 38.988-111.834-2.052-230.85-89.262-230.85-266.761 0-52.326 9.234-106.704 28.728-163.134 25.65-72.846 117.99-253.422 215.46-250.344 50.274 1.026 86.184 35.91 151.848 35.91 63.612 0 96.444-35.91 152.874-35.91 97.47 1.026 180.576 165.186 205.2 239.058-130.302 61.56-123.12 180.576-123.12 183.654zM517.105 688.45c54.378 64.638 50.274 124.146 48.222 145.692-48.222-3.078-104.652-32.832-136.458-70.794-34.884-38.988-55.404-88.236-51.3-143.64 52.326-4.104 100.548 22.572 139.536 68.742z" />
<glyph unicode="&#xe81d;" glyph-name="atlassian" d="M304.723 423.741c-15.39 16.416-38.988 15.39-49.248-5.13l-252.396-502.741c-10.26-20.52 5.13-44.118 26.676-44.118h350.893c11.286 0 22.572 6.156 26.676 17.442 75.924 155.952 30.78 392.959-102.6 534.548zM489.403 881.339c-244.188-387.829-16.416-698.708 130.302-993.171 5.13-10.26 15.39-16.416 27.702-16.416h348.841c22.572 0 36.936 23.598 26.676 43.092 0 0-469.909 943.923-482.221 966.495-10.26 21.546-36.936 22.572-51.3 0z" />
<glyph unicode="&#xe81e;" glyph-name="behance" horiz-adv-x="1154" d="M464.779 422.715c63.612 29.754 97.47 75.924 97.47 147.744 0 141.588-105.678 176.472-227.772 176.472h-334.477v-709.994h344.737c128.25 0 250.344 61.56 250.344 206.226 0 88.236-43.092 154.926-130.302 179.55zM155.952 625.863h146.718c56.43 0 106.704-16.416 106.704-81.054 0-60.534-38.988-85.158-95.418-85.158h-158.004v166.212zM323.191 156.981h-167.238v195.966h170.316c68.742 0 111.834-28.728 111.834-101.574 0-71.82-51.3-94.392-114.912-94.392zM1041.393 639.201h-288.307v69.768h288.307v-69.768zM1154.253 286.257c0 151.848-89.262 279.073-250.344 279.073-156.978 0-262.657-117.99-262.657-271.891 0-160.056 100.548-270.865 262.657-270.865 123.12 0 202.122 55.404 241.11 173.394h-125.172c-13.338-44.118-68.742-66.69-111.834-66.69-82.080 0-126.198 48.222-126.198 130.302h371.413c0 8.208 1.026 17.442 1.026 26.676zM782.84 348.843c4.104 67.716 49.248 109.782 116.964 109.782 70.794 0 106.704-42.066 112.86-109.782h-229.824z" />
<glyph unicode="&#xe81f;" glyph-name="bitbucket" horiz-adv-x="1000" d="M32.832 834.142c-17.442 1.026-32.832-13.338-32.832-31.806 0-1.026 0-3.078 0-5.13l136.458-825.933c3.078-20.52 21.546-35.91 43.092-36.936h652.538c15.39 0 29.754 11.286 31.806 27.702l136.458 835.167c2.052 17.442-9.234 33.858-26.676 36.936-2.052 0-4.104 0-6.156 0zM605.342 238.035h-208.278l-56.43 294.463h314.983z" />
<glyph unicode="&#xe820;" glyph-name="bitcoin" d="M1009.587 384.753c0-273.943-221.616-496.585-496.585-496.585s-496.585 222.642-496.585 496.585 222.642 496.585 496.585 496.585 496.585-221.616 496.585-496.585zM726.41 455.547c9.234 66.69-41.040 101.574-109.782 125.172l22.572 90.288-54.378 13.338-21.546-87.21c-14.364 3.078-29.754 7.182-44.118 10.26l21.546 87.21-54.378 14.364-21.546-90.288c-12.312 3.078-23.598 6.156-34.884 8.208v1.026l-75.924 18.468-14.364-58.482s41.040-9.234 40.014-9.234c21.546-6.156 25.65-20.52 25.65-31.806l-25.65-102.6c1.026 0 3.078-1.026 5.13-2.052-1.026 1.026-3.078 1.026-5.13 2.052l-35.91-143.64c-3.078-6.156-9.234-16.416-24.624-12.312 0-1.026-40.014 9.234-40.014 9.234l-26.676-61.56 70.794-18.468c13.338-3.078 25.65-6.156 38.988-9.234l-22.572-91.314 54.378-13.338 21.546 89.262c0.124-0.626 14.917-4.511 29.772-8.238l14.346-3.048-22.572-88.236 54.378-14.364 22.572 90.288c93.366-17.442 163.134-10.26 192.888 73.872 23.598 67.716-1.026 106.704-50.274 132.354 35.91 8.208 62.586 31.806 69.768 80.028zM601.238 281.127c-16.416-67.716-130.302-31.806-167.238-22.572l29.754 120.042c36.936-9.234 154.926-26.676 137.484-97.47zM618.68 456.573c-15.39-61.56-110.808-30.78-141.588-22.572l27.702 108.756c30.78-7.182 129.276-21.546 113.886-86.184z" />
<glyph unicode="&#xe821;" glyph-name="bity" horiz-adv-x="993" d="M156.978 763.348c191.862 178.524 493.507 182.628 687.422-8.208 28.728-27.702-12.312-73.872-44.118-43.092-170.316 165.186-432.973 161.082-599.186 7.182-32.832-30.78-73.872 16.416-44.118 44.118zM354.997-75.922c38.988-11.286 59.508 47.196 16.416 60.534-224.694 67.716-352.945 299.593-295.489 523.261 9.234 38.988-50.274 55.404-60.534 13.338-64.638-254.448 82.080-520.183 339.607-597.134zM652.538-71.818c244.188 81.054 385.777 334.477 329.347 582.77-9.234 40.014-69.768 27.702-60.534-15.39 48.222-215.46-73.872-437.077-287.281-507.871-42.066-14.364-20.52-71.82 18.468-59.508zM526.34 86.186v144.666c0 16.416-13.338 29.754-29.754 29.754s-29.754-14.364-29.754-29.754v-144.666c0-16.416 13.338-28.728 29.754-28.728s29.754 12.312 29.754 28.728zM667.928 625.863c5.13-182.628 10.26-264.709-171.342-265.735-184.68 1.026-173.394 89.262-171.342 265.735 0 43.092-64.638 38.988-64.638 0v-143.64c0-138.51 122.094-182.628 235.98-180.576 114.912-2.052 237.006 42.066 237.006 180.576v143.64c0 38.988-65.664 43.092-65.664 0z" />
<glyph unicode="&#xe822;" glyph-name="bluetooth" horiz-adv-x="898" d="M586.874 555.069l-86.184-86.184-1.026 172.368zM499.663 114.914l86.184 86.184-85.158 86.184zM834.141 377.571c0-411.427-144.666-505.819-371.413-505.819s-398.089 94.392-398.089 505.819 166.212 520.183 393.985 520.183 375.517-107.73 375.517-520.183zM516.079 377.571l159.030 177.498-250.344 269.839v-354.997l-147.744 147.744-54.378-53.352 185.706-186.732-185.706-185.706 53.352-54.378 148.77 147.744 4.104-340.633 255.474 255.474z" />
<glyph unicode="&#xe823;" glyph-name="btc" horiz-adv-x="770" d="M621.758 411.429c55.404 28.728 91.314 79.002 83.106 163.134-11.286 114.912-105.678 152.874-230.85 164.16v159.030h-97.47v-154.926c-24.624 0-50.274 0-76.95-1.026v155.952h-96.444v-159.030c-35.91-1.026-77.976-1.026-195.966 0v-103.626c76.95 1.026 116.964 6.156 126.198-43.092v-435.025c-5.13-40.014-36.936-33.858-106.704-32.832l-19.494-115.938c177.498 0 195.966 0 195.966 0v-136.458h96.444v134.406c26.676-1.026 52.326-1.026 76.95-1.026v-133.38h97.47v136.458c163.134 8.208 271.891 49.248 286.255 203.148 11.286 123.12-46.17 178.524-138.51 200.070zM301.645 627.915c55.404 0 226.746 17.442 226.746-97.47 0-108.756-171.342-96.444-226.746-96.444v193.914zM301.645 124.148v213.408c65.664 0 266.761 17.442 266.761-106.704 0-121.068-201.096-106.704-266.761-106.704z" />
<glyph unicode="&#xe824;" glyph-name="centos" horiz-adv-x="897" d="M580.718 701.788l62.586-63.612-152.874-152.874v216.486zM254.448 638.175l153.9-152.874v216.486h-90.288zM338.581 721.282h89.262v-255.474l21.546-22.572 21.546 22.572v255.474h89.262l-110.808 111.834zM390.907 384.753l-21.546 21.546h-258.552v90.288l-110.808-111.834 110.808-111.834v90.288h258.552zM549.938 425.793h215.46v90.288l-62.586 63.612zM896.727 384.753l-110.808 111.834v-90.288h-256.5l-21.546-21.546 21.546-21.546h256.5v-90.288zM131.328 543.783l64.638 63.612 181.602-181.602h30.78v30.78l-181.602 181.602 63.612 63.612h-159.030zM765.398 701.788h-156.978l63.612-63.612-181.602-181.602v-30.78h30.78l181.602 181.602 62.586-63.612zM408.349 67.718v216.486l-153.9-152.874 63.612-63.612h90.288zM131.328 425.793h217.512l-152.874 153.9-64.638-63.612zM765.398 225.723l-62.586-63.612-181.602 181.602h-30.78v-30.78l181.602-181.602-63.612-63.612h156.978zM765.398 343.713h-215.46l152.874-153.9 62.586 63.612zM643.304 131.331l-152.874 152.874v-216.486h90.288zM195.966 189.813l152.874 153.9h-217.512v-90.288zM560.198 48.224h-89.262v256.5l-21.546 21.546-21.546-21.546v-256.5h-89.262l110.808-111.834zM226.746 131.331l181.602 181.602v30.78h-30.78l-181.602-181.602-64.638 63.612v-158.004h159.030z" />
<glyph unicode="&#xe825;" glyph-name="chrome" horiz-adv-x="993" d="M263.683 461.703l-152.874 235.98c95.418 117.99 238.032 183.654 384.751 183.654 84.132 1.026 171.342-20.52 249.318-65.664 87.21-51.3 153.9-123.12 195.966-207.252l-411.427 22.572c-116.964 6.156-227.772-59.508-265.735-169.29zM329.347 384.753c0-92.34 74.898-167.238 167.238-167.238s168.264 74.898 168.264 167.238-74.898 167.238-168.264 167.238-167.238-74.898-167.238-167.238zM960.339 563.277l-280.099-14.364c75.924-88.236 77.976-216.486 13.338-314.983l-224.694-345.763c93.366-5.13 189.81 15.39 275.995 66.69 215.46 124.146 302.671 384.751 215.46 608.42zM267.787 289.335l-186.732 367.309c-51.3-77.976-81.054-171.342-81.054-271.891 0-248.292 181.602-454.519 419.635-490.429l128.25 249.318c-115.938-21.546-226.746 42.066-280.099 145.692z" />
<glyph unicode="&#xe826;" glyph-name="codepen" d="M1006.509 577.641l-468.883 312.931c-16.416 9.234-32.832 10.26-49.248 0l-468.883-312.931c-12.312-8.208-19.494-22.572-19.494-36.936v-311.905c0-14.364 7.182-28.728 19.494-36.936l468.883-312.931c16.416-9.234 32.832-10.26 49.248 0l468.883 312.931c12.312 8.208 19.494 22.572 19.494 36.936v311.905c0 14.364-7.182 28.728-19.494 36.936zM557.12 771.556l345.763-230.85-154.926-102.6-190.836 127.224zM468.883 771.556v-206.226l-190.836-127.224-153.9 102.6zM88.236 458.625l110.808-73.872-110.808-73.872zM468.883-2.050l-344.737 230.85 153.9 102.6 190.836-127.224zM513.001 281.127l-155.952 103.626 155.952 104.652 155.952-104.652zM557.12-2.050v206.226l190.836 127.224 154.926-102.6zM937.767 310.881l-110.808 73.872 110.808 73.872z" />
<glyph unicode="&#xe827;" glyph-name="cpanel" horiz-adv-x="1282" d="M421.687 456.573c-11.286 49.248-54.378 82.080-102.6 82.080h-73.872c-14.364 0-24.624-8.208-28.728-21.546l-69.768-260.604h49.248c13.338 0 24.624 9.234 28.728 21.546l51.3 191.862h40.014c16.416 0 32.832-11.286 36.936-29.754 4.104-21.546-12.312-45.144-36.936-45.144h-20.52c-14.364 0-25.65-9.234-28.728-21.546l-13.338-48.222h64.638c73.872 0 116.964 72.846 103.626 131.328zM107.73 400.143h36.936c14.364 0 25.65 9.234 28.728 22.572l12.312 47.196h-80.028c-45.144 0-87.21-28.728-102.6-83.106-17.442-67.716 33.858-130.302 101.574-130.302h24.624l14.364 52.326c2.052 9.234-5.13 16.416-13.338 16.416h-22.572c-49.248 0-50.274 74.898 0 74.898zM604.316 469.911h-156.978l-6.156-26.676c-5.13-19.494 8.208-36.936 27.702-36.936h115.938c7.182 0 4.104-8.208 4.104-10.26l-17.442-64.638c-1.026-2.052-2.052-10.26-11.286-10.26h-69.768c-10.26 0-10.26 16.416 0 16.416h43.092c13.338 0 24.624 9.234 28.728 21.546l7.182 25.65h-97.47c-77.976 0-87.21-127.224-1.026-127.224l114.912-1.026c22.572 0 41.040 15.39 47.196 35.91l27.702 103.626c10.26 38.988-19.494 73.872-56.43 73.872zM1269.165 538.653h-37.962c-10.26 0-18.468-6.156-21.546-15.39l-70.794-266.761c41.040 0 80.028 27.702 90.288 68.742l52.326 196.992c3.078 9.234-4.104 16.416-12.312 16.416zM795.153 469.911v-1.026h-96.444l-52.326-195.966c-3.078-9.234 4.104-16.416 12.312-16.416h37.962c9.234 0 18.468 6.156 20.52 15.39l34.884 128.25h40.014c24.624 0 42.066-23.598 35.91-47.196l-21.546-80.028c-2.052-8.208 4.104-16.416 13.338-16.416h37.962c9.234 0 18.468 6.156 20.52 15.39l17.442 66.69c18.468 66.69-31.806 131.328-100.548 131.328zM992.145 320.115c-7.182 0-12.312 7.182-10.26 13.338l16.416 60.534c1.026 7.182 7.182 11.286 15.39 11.286h65.664c5.13 0 9.234-4.104 8.208-10.26l-2.052-5.13c-1.026-4.104-3.078-6.156-7.182-6.156h-43.092c-14.364 0-25.65-9.234-28.728-21.546l-7.182-25.65h106.704c21.546 0 41.040 13.338 47.196 34.884l6.156 24.624c10.26 37.962-18.468 73.872-56.43 73.872h-95.418c-35.91 0-67.716-24.624-76.95-59.508l-21.546-80.028c-10.26-35.91 16.416-73.872 56.43-73.872h133.38c14.364 0 24.624 9.234 28.728 21.546l11.286 42.066z" />
<glyph unicode="&#xe828;" glyph-name="discord" horiz-adv-x="898" d="M596.108 410.403c0-30.78-23.598-56.43-52.326-56.43s-52.326 25.65-52.326 56.43 22.572 57.456 52.326 57.456c28.728 0 52.326-25.65 52.326-57.456zM356.023 467.859c-28.728 0-52.326-25.65-52.326-57.456s23.598-56.43 52.326-56.43c29.754 0 52.326 25.65 52.326 56.43 1.026 31.806-22.572 57.456-52.326 57.456zM897.753 792.076v-920.325c-129.276 113.886-88.236 75.924-238.032 216.486l27.702-95.418h-581.744c-58.482 0-105.678 47.196-105.678 105.678v693.578c0 58.482 47.196 105.678 105.678 105.678h687.422c57.456 0 104.652-47.196 104.652-105.678zM752.060 305.751c0 165.186-73.872 299.593-73.872 299.593-73.872 55.404-144.666 53.352-144.666 53.352l-7.182-8.208c87.21-26.676 128.25-64.638 128.25-64.638-122.094 66.69-265.735 66.69-383.725 14.364-18.468-8.208-29.754-14.364-29.754-14.364s42.066 40.014 134.406 66.69l-5.13 6.156s-69.768 2.052-143.64-53.352c0 0-73.872-134.406-73.872-299.593 0 0 43.092-73.872 155.952-77.976 0 0 19.494 23.598 34.884 43.092-65.664 19.494-90.288 60.534-90.288 60.534 7.182-6.156 20.52-12.312 21.546-13.338 86.184-48.222 209.304-64.638 320.113-17.442 17.442 6.156 37.962 16.416 58.482 29.754 0 0-25.65-42.066-92.34-60.534 15.39-19.494 33.858-42.066 33.858-42.066 112.86 4.104 156.978 77.976 156.978 77.976z" />
<glyph unicode="&#xe829;" glyph-name="dochub" horiz-adv-x="833" d="M797.205 577.641h-284.203v281.125l284.203-281.125zM609.446 513.003v-260.604c0-133.38-72.846-200.070-226.746-200.070h-189.81v675.11h189.81c23.598 0 46.17-1.026 65.664-4.104v168.264c-21.546 4.104-45.144 6.156-68.742 6.156h-379.621v-1026.003h379.621c281.125 0 421.687 129.276 421.687 388.855v252.396h-191.862z" />
<glyph unicode="&#xe82a;" glyph-name="docker" horiz-adv-x="1282" d="M700.76 424.767h-132.354v119.016h132.354zM700.76 834.142h-132.354v-122.094h132.354zM857.739 543.783h-132.354v-119.016h132.354zM544.808 688.45h-132.354v-121.068h132.354zM700.76 688.45h-132.354v-121.068h132.354zM1255.827 487.353c-28.728 19.494-95.418 26.676-146.718 17.442-6.156 48.222-32.832 89.262-82.080 127.224l-27.702 18.468-18.468-27.702c-36.936-55.404-47.196-147.744-8.208-208.278-17.442-9.234-51.3-22.572-96.444-21.546h-871.077c-17.442-101.574 11.286-233.928 88.236-324.217 73.872-88.236 185.706-133.38 331.399-133.38 314.983 0 548.912 145.692 657.668 409.375 43.092-1.026 135.432 0 182.628 90.288 3.078 5.13 13.338 26.676 17.442 34.884zM231.876 543.783h-132.354v-119.016h132.354v119.016zM387.829 543.783h-132.354v-119.016h132.354zM544.808 543.783h-132.354v-119.016h132.354zM387.829 688.45h-132.354v-121.068h132.354z" />
<glyph unicode="&#xe82b;" glyph-name="dribbble" d="M513.001 881.339c-273.943 0-496.585-222.642-496.585-496.585s222.642-496.585 496.585-496.585 496.585 222.642 496.585 496.585-222.642 496.585-496.585 496.585zM841.323 652.539c59.508-71.82 95.418-164.16 96.444-264.709-14.364 3.078-154.926 31.806-295.489 14.364-12.312 27.702-22.572 52.326-37.962 83.106 156.978 63.612 228.798 154.926 237.006 167.238zM794.127 701.788c-7.182-11.286-70.794-96.444-222.642-153.9-68.742 128.25-145.692 232.902-158.004 249.318 134.406 31.806 277.021-3.078 380.647-95.418zM332.425 768.478c11.286-15.39 87.21-121.068 158.004-245.214-199.044-53.352-373.465-52.326-392.959-52.326 27.702 132.354 115.938 241.11 234.954 297.541zM88.236 383.727c0 5.13 0 9.234 1.026 13.338 18.468 0 223.668-3.078 436.051 60.534 12.312-23.598 23.598-48.222 33.858-71.82-152.874-43.092-292.411-167.238-361.153-285.229-67.716 74.898-109.782 174.42-109.782 283.177zM252.396 49.25c44.118 90.288 165.186 207.252 335.503 265.735 59.508-154.926 85.158-284.203 91.314-322.165-136.458-57.456-300.619-42.066-426.817 56.43zM750.008 31.808c-4.104 26.676-26.676 150.822-82.080 302.671 132.354 21.546 249.318-13.338 264.709-17.442-19.494-117.99-87.21-220.59-182.628-285.229z" />
<glyph unicode="&#xe82c;" glyph-name="dropbox" horiz-adv-x="1058" d="M529.418 664.852l-263.683-169.29 263.683-168.264-263.683-169.29-265.735 170.316 264.709 169.29-264.709 167.238 264.709 169.29zM263.683 104.654l264.709 169.29 264.709-169.29-264.709-169.29zM529.418 328.323l264.709 169.29-264.709 167.238 263.683 169.29 264.709-169.29-264.709-169.29 264.709-168.264-264.709-169.29z" />
<glyph unicode="&#xe82d;" glyph-name="drupal" horiz-adv-x="898" d="M640.226 667.93c-44.118 27.702-87.21 38.988-129.276 66.69-26.676 18.468-62.586 60.534-93.366 97.47-5.13-58.482-23.598-83.106-44.118-99.522-43.092-33.858-69.768-44.118-107.73-64.638-30.78-16.416-201.096-133.38-201.096-351.919 0-219.564 183.654-380.647 387.829-380.647s381.673 148.77 381.673 373.465c0 224.694-167.238 342.685-193.914 359.101zM645.356 15.392c-40.014-40.014-180.576-57.456-233.928-8.208-9.234 9.234 1.026 23.598 13.338 23.598 0 0 33.858-26.676 102.6-26.676 54.378 0 92.34 15.39 109.782 28.728 12.312 9.234 16.416-9.234 8.208-17.442zM536.6 121.070c17.442 7.182 57.456 7.182 72.846-3.078 8.208-5.13 32.832-36.936 12.312-47.196-16.416-8.208-2.052 31.806-52.326 31.806-29.754 0-38.988-10.26-53.352-22.572s-20.52-15.39-24.624-9.234c-12.312 16.416 31.806 45.144 45.144 50.274zM721.28 86.186c-30.78 2.052-91.314 97.47-130.302 99.522-61.56 1.026-208.278-162.108-323.191-84.132-77.976 53.352-28.728 209.304 103.626 210.33 99.522 1.026 168.264-98.496 217.512-97.47 43.092 1.026 124.146 84.132 164.16 84.132 97.47 0 47.196-218.538-31.806-212.382z" />
<glyph unicode="&#xe82e;" glyph-name="ebay" horiz-adv-x="1282" d="M1214.787 518.133l-109.782-220.59-110.808 220.59h-74.898l21.546-41.040c-22.572 37.962-71.82 51.3-126.198 51.3-63.612 0-136.458-17.442-143.64-86.184h67.716c3.078 27.702 31.806 44.118 69.768 44.118 52.326 0 82.080-19.494 82.080-66.69v-6.156c-24.624 0-55.404 0-83.106-1.026-85.158-2.052-139.536-20.52-153.9-68.742 2.052 10.26 3.078 21.546 3.078 31.806 0 104.652-79.002 152.874-150.822 152.874-43.092 0-86.184-10.26-117.99-48.222v161.082h-64.638v-339.607c0-20.52-1.026-45.144-2.052-65.664h63.612c1.026 12.312 2.052 25.65 2.052 38.988 27.702-33.858 70.794-50.274 117.99-50.274 73.872 0 129.276 44.118 146.718 108.756-1.026-5.13-2.052-11.286-2.052-18.468 0-48.222 43.092-89.262 122.094-89.262 53.352 0 91.314 11.286 124.146 50.274 0-13.338 0-26.676 2.052-40.014h59.508c-1.026 16.416-2.052 34.884-2.052 53.352v131.328c0 19.494-3.078 34.884-9.234 48.222l123.12-232.902-57.456-108.756h71.82l199.044 390.907zM488.377 268.815c-59.508 0-100.548 43.092-100.548 107.73 0 65.664 41.040 107.73 100.548 107.73s100.548-42.066 100.548-107.73c0-64.638-41.040-107.73-100.548-107.73zM890.571 364.233c0-60.534-35.91-97.47-102.6-97.47-50.274 0-70.794 26.676-70.794 51.3 0 38.988 36.936 49.248 94.392 51.3 26.676 1.026 55.404 1.026 79.002 1.026zM65.664 360.129h257.526v17.442c0 103.626-65.664 150.822-156.978 150.822-113.886 0-166.212-61.56-166.212-154.926 0-85.158 51.3-148.77 165.186-148.77 63.612 0 136.458 23.598 149.796 92.34h-66.69c-23.598-71.82-175.446-72.846-182.628 43.092zM255.474 403.221h-188.784c14.364 113.886 184.68 109.782 188.784 0z" />
<glyph unicode="&#xe82f;" glyph-name="facebook" horiz-adv-x="898" d="M897.753 783.868v-798.231c0-27.702-22.572-49.248-49.248-49.248h-228.798v346.789h115.938l17.442 135.432h-133.38v87.21c0 38.988 10.26 65.664 66.69 65.664h71.82v121.068c-12.312 2.052-55.404 6.156-104.652 6.156-103.626 0-174.42-63.612-174.42-179.55v-100.548h-116.964v-135.432h116.964v-347.815h-429.895c-26.676 0-49.248 22.572-49.248 50.274v798.231c0 27.702 22.572 50.274 49.248 50.274h799.257c26.676 0 49.248-22.572 49.248-50.274z" />
<glyph unicode="&#xe830;" glyph-name="figma" horiz-adv-x="684" d="M513.001 556.095c94.392 0 171.342 75.924 171.342 170.316s-76.95 171.342-171.342 171.342h-341.659c-94.392 0-171.342-76.95-171.342-171.342s76.95-170.316 171.342-170.316c-94.392 0-171.342-76.95-171.342-171.342s76.95-171.342 171.342-171.342c-94.392 0-171.342-75.924-171.342-170.316s76.95-171.342 171.342-171.342 170.316 76.95 170.316 171.342v513.001zM513.001 556.095c-94.392 0-171.342-76.95-171.342-171.342s76.95-171.342 171.342-171.342 171.342 76.95 171.342 171.342-76.95 171.342-171.342 171.342z" />
<glyph unicode="&#xe831;" glyph-name="firefox" horiz-adv-x="961" d="M958.287 425.793c-2.052 9.234-3.078 14.364-3.078 14.364s-3.078-4.104-9.234-11.286c-2.052 21.546-6.156 42.066-11.286 63.612-8.208 25.65-17.442 50.274-29.754 74.898-7.182 15.39-16.416 30.78-26.676 45.144-3.078 5.13-7.182 11.286-11.286 16.416-17.442 28.728-37.962 46.17-61.56 80.028-14.364 25.65-25.65 53.352-30.78 83.106-6.156-17.442-11.286-35.91-14.364-54.378-24.624 23.598-45.144 41.040-58.482 53.352-61.56 58.482-54.378 88.236-54.378 88.236s-116.964-130.302-66.69-265.735c17.442-46.17 48.222-86.184 87.21-115.938 49.248-41.040 101.574-72.846 129.276-153.9-21.546 43.092-55.404 79.002-97.47 103.626 12.312-29.754 18.468-61.56 18.468-93.366 0-122.094-99.522-221.616-221.616-221.616-16.416 0-32.832 2.052-49.248 6.156-18.468 3.078-36.936 9.234-54.378 18.468-25.65 15.39-48.222 35.91-65.664 60.534l-1.026 1.026 4.104-2.052c9.234-3.078 18.468-5.13 28.728-7.182 36.936-8.208 75.924-3.078 110.808 13.338 34.884 19.494 56.43 33.858 73.872 27.702v0c17.442-5.13 29.754 11.286 18.468 28.728-21.546 26.676-55.404 40.014-89.262 33.858-34.884-5.13-66.69-30.78-112.86-6.156-3.078 2.052-5.13 3.078-8.208 5.13s9.234-3.078 6.156-1.026c-9.234 5.13-19.494 11.286-28.728 17.442 0 1.026 7.182-2.052 6.156-1.026-11.286 7.182-21.546 18.468-29.754 29.754-8.208 15.39-9.234 32.832-2.052 48.222 4.104 8.208 11.286 14.364 18.468 17.442 6.156-3.078 10.26-5.13 10.26-5.13s-3.078 5.13-4.104 8.208c0 0 1.026 0 1.026 0 5.13-2.052 16.416-8.208 22.572-11.286 5.13-2.052 8.208-6.156 11.286-9.234 0 0 2.052 1.026 0 5.13-2.052 5.13-6.156 10.26-10.26 13.338v0c4.104-3.078 9.234-5.13 13.338-8.208 4.104 8.208 5.13 18.468 5.13 27.702 0 5.13 0 10.26-2.052 15.39-2.052 3.078 1.026 5.13 4.104 1.026-1.026 3.078-2.052 5.13-3.078 8.208v0s2.052 2.052 3.078 3.078c1.026 2.052 4.104 3.078 6.156 5.13 14.364 9.234 29.754 16.416 46.17 23.598 12.312 5.13 22.572 9.234 25.65 11.286 3.078 1.026 6.156 4.104 8.208 6.156 11.286 9.234 18.468 21.546 20.52 35.91 0 2.052 1.026 3.078 1.026 5.13v3.078c-2.052 7.182-14.364 12.312-76.95 18.468-22.572 4.104-40.014 20.52-45.144 42.066v0c12.312 31.806 33.858 58.482 61.56 76.95 2.052 2.052-6.156 0-5.13 1.026 6.156 3.078 11.286 5.13 16.416 7.182 3.078 1.026-11.286 7.182-24.624 5.13-8.208 0-16.416-2.052-23.598-5.13 3.078 2.052 12.312 6.156 10.26 6.156-17.442-3.078-32.832-9.234-48.222-18.468 0 2.052 0 3.078 1.026 5.13-11.286-5.13-21.546-13.338-29.754-23.598 0 2.052 0 4.104 0 6.156-5.13-4.104-10.26-9.234-14.364-14.364v0c-34.884 13.338-72.846 16.416-109.782 9.234v0 0c-7.182 6.156-14.364 13.338-19.494 21.546v0l-1.026 1.026c-2.052 3.078-5.13 7.182-7.182 11.286s-4.104 7.182-5.13 11.286c0 0-1.026 0-1.026 0-1.026 0-1.026-3.078-2.052-3.078v1.026c-6.156 16.416-9.234 33.858-8.208 52.326h-1.026c-10.26-7.182-17.442-17.442-21.546-29.754-2.052-4.104-3.078-6.156-5.13-9.234v1.026c1.026 3.078 2.052 7.182 1.026 7.182s0-1.026 0-1.026c-3.078-4.104-6.156-7.182-8.208-12.312-2.052-3.078-3.078-7.182-4.104-11.286-1.026-1.026 0 0 0 2.052s0 4.104 0 3.078l-1.026-1.026c-13.338-29.754-21.546-61.56-24.624-94.392-1.026-6.156-1.026-11.286-1.026-16.416v-1.026c-9.234-10.26-18.468-21.546-25.65-33.858-24.624-41.040-42.066-85.158-53.352-131.328 8.208 17.442 17.442 33.858 28.728 50.274-21.546-54.378-32.832-112.86-32.832-171.342 4.104 17.442 8.208 33.858 14.364 51.3-4.104-69.768 9.234-138.51 38.988-201.096 38.988-87.21 102.6-161.082 184.68-210.33 32.832-22.572 69.768-40.014 107.73-51.3 5.13-2.052 10.26-4.104 15.39-5.13-2.052 0-3.078 1.026-5.13 1.026 45.144-13.338 93.366-20.52 140.562-20.52 167.238 0 222.642 64.638 227.772 70.794 8.208 7.182 15.39 16.416 19.494 26.676 3.078 1.026 6.156 2.052 10.26 4.104l2.052 1.026 3.078 2.052c25.65 11.286 49.248 26.676 70.794 44.118 32.832 23.598 56.43 57.456 66.69 96.444 6.156 14.364 6.156 29.754 0 44.118 2.052 3.078 4.104 6.156 6.156 9.234 35.91 57.456 56.43 123.12 59.508 191.862v5.13c0 15.39-2.052 29.754-4.104 43.092zM359.101 621.759c-1.026-2.052-2.052-4.104-3.078-7.182 1.026 3.078 2.052 5.13 3.078 7.182z" />
<glyph unicode="&#xe832;" glyph-name="google-plus" horiz-adv-x="993" d="M496.585 881.339c-273.943 0-496.585-222.642-496.585-496.585s222.642-496.585 496.585-496.585 497.611 222.642 497.611 496.585-222.642 496.585-497.611 496.585zM354.997 136.461c-137.484 0-248.292 110.808-248.292 248.292s110.808 248.292 248.292 248.292c62.586 0 121.068-21.546 166.212-64.638l-66.69-65.664c-26.676 26.676-62.586 38.988-99.522 38.988-85.158 0-153.9-71.82-153.9-156.978s67.716-155.952 153.9-155.952c65.664 0 130.302 37.962 140.562 106.704h-140.562v85.158h234.954c2.052-13.338 3.078-27.702 3.078-41.040 0-142.614-94.392-243.162-238.032-243.162zM816.699 348.843v-70.794h-70.794v70.794h-71.82v71.82h71.82v70.794h70.794v-70.794h70.794v-71.82h-70.794z" />
<glyph unicode="&#xe833;" glyph-name="google" horiz-adv-x="978" d="M977.781 373.467c0-284.203-193.914-485.299-481.195-485.299-274.969 0-496.585 221.616-496.585 496.585s221.616 496.585 496.585 496.585c134.406 0 247.266-48.222 333.451-129.276l-135.432-130.302c-176.472 170.316-505.819 42.066-505.819-237.006 0-173.394 138.51-313.957 307.801-313.957 196.992 0 270.865 141.588 282.151 214.434h-282.151v171.342h474.013c4.104-25.65 7.182-50.274 7.182-83.106z" />
<glyph unicode="&#xe834;" glyph-name="grunt" horiz-adv-x="770" d="M123.12 518.133c-2.052-19.494 10.26-37.962 10.26-37.962 1.026 15.39 4.104 25.65 8.208 32.832 1.026-20.52 6.156-46.17 25.65-67.716 13.338-15.39 70.794-47.196 109.782-12.312 2.052-5.13 4.104-10.26 6.156-17.442 5.13-20.52-5.13-50.274-5.13-50.274s29.754 33.858 27.702 64.638c21.546 1.026 43.092 17.442 42.066 38.988 0 0-37.962-20.52-70.794 18.468-19.494 22.572-82.080 84.132-167.238 63.612 9.234-2.052 18.468-5.13 27.702-8.208h-1.026c-8.208-4.104-12.312-14.364-13.338-24.624zM179.55 522.237c38.988-22.572 74.898-51.3 90.288-73.872-11.286-7.182-44.118-21.546-75.924 3.078-21.546 15.39-20.52 52.326-14.364 70.794zM464.779 429.897c-3.078-30.78 27.702-64.638 27.702-64.638s-11.286 29.754-6.156 50.274c2.052 7.182 4.104 12.312 6.156 17.442 38.988-34.884 96.444-3.078 109.782 12.312 19.494 21.546 24.624 47.196 25.65 67.716 4.104-7.182 7.182-17.442 8.208-32.832 0 0 13.338 18.468 10.26 37.962-1.026 10.26-5.13 20.52-13.338 23.598h-1.026c9.234 4.104 18.468 7.182 27.702 8.208-85.158 20.52-147.744-41.040-166.212-63.612-33.858-37.962-71.82-17.442-71.82-17.442 0-21.546 20.52-37.962 43.092-38.988zM589.952 522.237c6.156-18.468 7.182-55.404-14.364-70.794-31.806-24.624-64.638-10.26-75.924-3.078 15.39 22.572 51.3 51.3 90.288 73.872zM321.139 59.51h-59.508c-11.286 0-16.416-3.078-18.468-6.156-4.104-4.104-5.13-9.234-2.052-16.416 7.182-18.468 22.572-32.832 27.702-36.936 6.156-6.156 14.364-9.234 23.598-9.234 8.208 0 16.416 4.104 21.546 9.234 15.39 16.416 23.598 34.884 25.65 40.014 2.052 3.078 3.078 9.234-1.026 13.338s-9.234 6.156-17.442 6.156zM699.734 261.633c-5.13-35.91-25.65-67.716-49.248-87.21-6.156 45.144-7.182 110.808-7.182 125.172 0 29.754 18.468 49.248 24.624 52.326 5.13 3.078 10.26 6.156 16.416 9.234 35.91 19.494 81.054 43.092 81.054 87.21 0 32.832-18.468 46.17-30.78 55.404-2.052 2.052-3.078 3.078-5.13 4.104-4.104 3.078-7.182 6.156-8.208 8.208-9.234 20.52-7.182 68.742-3.078 75.924 1.026 1.026 32.832 42.066 23.598 77.976-4.104 15.39-14.364 26.676-28.728 34.884-10.26 5.13-23.598 8.208-38.988 8.208 0 4.104-1.026 8.208-2.052 12.312-1.026 5.13-2.052 10.26-1.026 16.416 0 9.234 1.026 17.442 4.104 22.572 16.416 26.676 57.456 34.884 58.482 34.884l24.624 5.13-16.416 18.468c0 1.026-34.884 35.91-93.366 35.91-15.39 0-31.806-3.078-48.222-8.208-48.222-15.39-86.184-61.56-98.496-79.002-6.156 2.052-13.338 4.104-19.494 5.13-8.208 31.806 18.468 77.976 18.468 77.976s-27.702 6.156-67.716-30.78c-5.13 13.338-16.416 41.040-4.104 74.898-58.482-21.546-73.872-53.352-77.976-82.080-15.39 11.286-13.338 46.17-14.364 55.404-15.39-2.052-58.482-44.118-56.43-96.444-4.104-1.026-8.208-2.052-12.312-4.104-13.338 18.468-50.274 63.612-98.496 79.002-16.416 4.104-32.832 7.182-48.222 7.182-58.482 0-92.34-34.884-92.34-34.884l-16.416-19.494 24.624-4.104c0 0 41.040-9.234 57.456-35.91 3.078-4.104 4.104-13.338 5.13-22.572 0-5.13-1.026-10.26-2.052-16.416-1.026-3.078-2.052-7.182-2.052-11.286-15.39-1.026-28.728-4.104-38.988-9.234-14.364-7.182-24.624-19.494-27.702-33.858-10.26-36.936 21.546-76.95 23.598-79.002 3.078-6.156 5.13-55.404-4.104-74.898-1.026-3.078-4.104-5.13-8.208-9.234-1.026-1.026-3.078-2.052-4.104-3.078-12.312-9.234-30.78-23.598-30.78-55.404 0-44.118 44.118-68.742 80.028-88.236 6.156-3.078 12.312-6.156 17.442-9.234s23.598-22.572 23.598-52.326c0-13.338-1.026-79.002-7.182-124.146-22.572 19.494-44.118 51.3-49.248 87.21 0 0-58.482-45.144-41.040-141.588 10.26-59.508 46.17-92.34 94.392-109.782 17.442-37.962 58.482-91.314 134.406-99.522 28.728-23.598 68.742-38.988 127.224-38.988h1.026c58.482 0 98.496 15.39 127.224 38.988 75.924 8.208 116.964 61.56 134.406 99.522 48.222 17.442 84.132 50.274 94.392 109.782 16.416 96.444-42.066 141.588-42.066 141.588zM612.524 821.83c11.286 4.104 23.598 6.156 35.91 6.156 21.546 0 40.014-6.156 49.248-10.26-6.156-3.078-13.338-6.156-19.494-10.26-5.13 0-11.286 1.026-18.468 1.026-20.52 0-41.040-6.156-57.456-17.442-24.624-17.442-35.91-33.858-41.040-45.144-5.13 3.078-9.234 5.13-14.364 7.182-3.078 2.052-6.156 3.078-10.26 5.13 12.312 17.442 40.014 52.326 75.924 63.612zM654.59 785.92c-1.026-2.052-3.078-4.104-4.104-6.156-7.182-11.286-8.208-23.598-9.234-35.91-1.026-13.338-2.052-25.65-9.234-33.858-8.208-2.052-15.39-4.104-22.572-6.156-4.104 6.156-11.286 14.364-21.546 22.572 3.078 10.26 11.286 32.832 27.702 45.144 11.286 9.234 24.624 13.338 38.988 14.364zM91.314 807.466c-6.156 4.104-13.338 7.182-19.494 10.26 10.26 4.104 27.702 10.26 49.248 10.26 12.312 0 24.624-2.052 35.91-6.156 35.91-11.286 63.612-46.17 75.924-63.612-4.104-2.052-7.182-3.078-10.26-5.13-5.13-2.052-9.234-4.104-14.364-7.182-5.13 11.286-16.416 27.702-41.040 45.144-16.416 11.286-36.936 17.442-57.456 17.442-7.182 0-13.338-1.026-18.468-1.026zM180.576 726.412c-9.234-8.208-16.416-15.39-20.52-22.572-7.182 2.052-14.364 4.104-23.598 6.156-6.156 8.208-7.182 20.52-8.208 33.858-1.026 12.312-2.052 24.624-9.234 34.884-1.026 3.078-2.052 5.13-4.104 7.182 14.364-1.026 27.702-5.13 38.988-14.364 16.416-12.312 24.624-34.884 26.676-45.144zM116.964 376.545c-6.156 4.104-11.286 6.156-17.442 9.234-29.754 16.416-60.534 32.832-60.534 61.56 0 22.572 9.234 29.754 18.468 36.936v0c2.052 1.026 3.078 3.078 5.13 4.104-2.052-14.364-4.104-26.676-5.13-29.754 0 0 23.598 29.754 30.78 88.236 3.078 23.598-2.052 68.742-10.26 86.184 1.026-9.234 0-19.494 0-28.728-1.026 2.052-2.052 3.078-3.078 4.104-6.156 8.208-23.598 35.91-18.468 53.352 1.026 7.182 6.156 12.312 13.338 16.416 7.182 3.078 17.442 5.13 29.754 5.13 24.624 0 52.326-7.182 66.69-11.286 50.274-16.416 110.808-62.586 128.25-75.924 0 0 1.026-1.026 1.026-1.026l10.26-7.182-6.156 11.286c-1.026 1.026-38.988 62.586-106.704 93.366 4.104 6.156 14.364 16.416 43.092 29.754 43.092 21.546 93.366 31.806 148.77 31.806 56.43 0 105.678-10.26 148.77-31.806 28.728-13.338 38.988-23.598 43.092-29.754-67.716-30.78-105.678-92.34-105.678-93.366l-7.182-11.286 11.286 7.182s0 1.026 1.026 1.026c17.442 13.338 77.976 59.508 128.25 75.924 13.338 4.104 41.040 11.286 65.664 11.286 12.312 0 22.572-2.052 29.754-5.13 7.182-4.104 12.312-9.234 14.364-16.416 4.104-17.442-12.312-45.144-19.494-53.352-1.026-1.026-2.052-2.052-2.052-4.104-1.026 9.234-1.026 19.494-1.026 28.728-8.208-17.442-13.338-62.586-10.26-86.184 7.182-58.482 31.806-88.236 31.806-88.236-2.052 3.078-4.104 15.39-5.13 29.754 1.026-1.026 2.052-3.078 4.104-4.104h1.026c9.234-8.208 17.442-14.364 17.442-36.936 0-28.728-30.78-45.144-60.534-61.56-5.13-3.078-11.286-6.156-16.416-9.234-17.442-9.234-35.91-32.832-38.988-67.716-1.026-29.754 2.052-100.548 7.182-152.874-24.624-9.234-53.352-12.312-79.002-13.338-4.104 8.208-8.208 17.442-11.286 26.676-2.052 4.104-38.988 102.6-53.352 124.146 11.286-77.976 34.884-147.744 47.196-179.55-7.182 1.026-14.364 2.052-23.598 2.052h-233.928c-9.234 0-16.416-1.026-23.598-2.052 12.312 31.806 35.91 101.574 47.196 179.55-13.338-22.572-51.3-121.068-53.352-124.146-3.078-9.234-7.182-18.468-10.26-26.676-26.676 1.026-55.404 4.104-80.028 13.338 5.13 52.326 8.208 123.12 7.182 152.874-2.052 34.884-20.52 58.482-37.962 67.716zM69.768 87.212c-24.624 40.014-17.442 107.73-7.182 117.99 21.546-68.742 94.392-88.236 148.77-90.288-5.13-9.234-10.26-15.39-14.364-20.52l-2.052-3.078c-14.364-15.39-17.442-36.936-8.208-63.612-46.17 0-93.366 19.494-116.964 59.508zM161.082 0.002c12.312-2.052 24.624-4.104 37.962-5.13 6.156-16.416 14.364-31.806 24.624-46.17-28.728 11.286-49.248 31.806-62.586 51.3zM384.751-100.546c-121.068 0-156.978 91.314-170.316 129.276-7.182 21.546-6.156 36.936 2.052 46.17 6.156 7.182 19.494 15.39 49.248 15.39h238.032c30.78 0 44.118-8.208 49.248-15.39 8.208-9.234 9.234-24.624 2.052-46.17-13.338-36.936-49.248-129.276-170.316-129.276zM545.834-51.298c10.26 14.364 18.468 29.754 24.624 46.17 13.338 1.026 25.65 3.078 37.962 5.13-13.338-19.494-32.832-40.014-62.586-51.3zM699.734 87.212c-23.598-40.014-70.794-58.482-115.938-59.508 8.208 26.676 6.156 48.222-8.208 63.612-1.026 1.026-2.052 2.052-3.078 3.078-4.104 5.13-9.234 11.286-14.364 19.494 54.378 3.078 127.224 22.572 149.796 91.314 9.234-10.26 16.416-77.976-8.208-117.99zM384.751 521.211v0c25.65 1.026 54.378 35.91 54.378 35.91-19.494-12.312-36.936-16.416-54.378-16.416s-34.884 4.104-54.378 16.416c0 0 28.728-34.884 54.378-35.91zM507.871 59.51h-58.482c-8.208 0-14.364-2.052-17.442-5.13-5.13-5.13-3.078-11.286-2.052-13.338 2.052-6.156 11.286-23.598 25.65-38.988 5.13-6.156 13.338-9.234 22.572-9.234s17.442 3.078 23.598 8.208c4.104 4.104 20.52 18.468 26.676 36.936 3.078 6.156 2.052 11.286-1.026 15.39-3.078 3.078-8.208 6.156-19.494 6.156z" />
<glyph unicode="&#xe835;" glyph-name="gulp" horiz-adv-x="514" d="M420.661 113.888l-28.728-49.248-9.234-161.082c0-17.442-56.43-31.806-126.198-31.806s-126.198 14.364-126.198 31.806l-12.312 160.056-29.754 50.274c83.106-34.884 252.396-32.832 332.425 0zM27.702 621.759l27.702-251.37c11.286 40.014 41.040 94.392 80.028 110.808 12.312 5.13 24.624 5.13 36.936-2.052 10.26-6.156 19.494-18.468 20.52-23.598 2.052-13.338-4.104-18.468-9.234-18.468-6.156 0-10.26 9.234-13.338 14.364-8.208 15.39-20.52 15.39-33.858 6.156-14.364-10.26-25.65-26.676-34.884-42.066-9.234-17.442-18.468-36.936-23.598-56.43-3.078-11.286-6.156-28.728-1.026-40.014 2.052-4.104 5.13-7.182 9.234-7.182 10.26 0 24.624 13.338 31.806 20.52 9.234 9.234 20.52 23.598 25.65 31.806l10.26 31.806c5.13 13.338 19.494 11.286 19.494 0 0-20.52-7.182-27.702-19.494-69.768-12.312-38.988-15.39-52.326-15.39-52.326-2.052-5.13-7.182-14.364-12.312-14.364-3.078 0-5.13 1.026-6.156 2.052-2.052 3.078-1.026 10.26-1.026 12.312 0 7.182 12.312 45.144 14.364 51.3-4.104-5.13-8.208-9.234-12.312-13.338-11.286-10.26-28.728-23.598-43.092-23.598-7.182 0-11.286 1.026-15.39 4.104l14.364-159.030c4.104-10.26 79.002-33.858 177.498-33.858s172.368 23.598 176.472 33.858l21.546 189.81c-11.286-10.26-24.624-23.598-38.988-29.754-11.286-5.13-34.884-8.208-34.884 11.286 0 10.26 18.468 29.754 28.728 43.092 3.078 3.078 9.234 11.286 9.234 16.416s-11.286 4.104-23.598-5.13c-6.156-5.13-12.312-12.312-17.442-19.494-8.208-12.312-12.312-22.572-16.416-30.78-12.312-28.728-8.208-17.442-18.468-44.118s-8.208-23.598-10.26-28.728c-2.052-3.078-4.104-7.182-8.208-8.208-4.104-2.052-9.234-2.052-12.312 0-2.052 1.026-2.052 4.104-2.052 7.182 0 2.052 0 4.104 0 6.156 3.078 12.312 15.39 35.91 30.78 68.742 3.078 7.182 1.026 5.13 1.026 4.104-12.312-12.312-21.546-17.442-28.728-20.52-11.286-5.13-25.65-5.13-28.728 8.208-1.026 0-1.026 1.026-1.026 2.052-23.598-18.468-48.222-23.598-40.014 16.416-9.234-16.416-24.624-29.754-45.144-29.754-8.208 0-13.338 2.052-16.416 10.26-5.13 10.26 2.052 29.754 9.234 47.196 3.078 9.234 7.182 19.494 14.364 32.832 3.078 6.156 8.208 10.26 14.364 9.234 2.052-1.026 3.078-1.026 3.078-2.052 6.156-3.078 4.104-9.234 1.026-14.364-7.182-15.39-14.364-25.65-18.468-42.066-2.052-6.156-4.104-17.442 3.078-17.442 5.13 0 9.234 1.026 13.338 5.13 9.234 6.156 17.442 16.416 22.572 26.676 4.104 7.182 9.234 16.416 11.286 24.624 1.026 3.078 2.052 6.156 3.078 9.234 3.078 5.13 6.156 10.26 11.286 10.26 2.052 0 4.104-1.026 6.156-3.078 3.078-4.104 2.052-8.208 1.026-13.338-4.104-11.286-10.26-21.546-14.364-33.858-2.052-7.182-5.13-15.39-5.13-23.598 0-6.156 7.182-5.13 13.338-2.052 5.13 2.052 10.26 6.156 13.338 9.234 3.078 9.234 2.052 7.182 53.352 136.458 3.078 7.182 7.182 9.234 12.312 9.234 2.052 0 4.104-1.026 6.156-2.052 3.078-2.052 3.078-8.208 2.052-12.312s-1.026-3.078-9.234-20.52c-10.26-24.624-16.416-42.066-25.65-64.638-4.104-9.234-15.39-37.962-17.442-44.118-2.052-5.13-3.078-12.312 2.052-12.312 10.26 0 37.962 26.676 46.17 34.884 0 0 1.026 0 1.026 1.026 2.052 3.078 3.078 7.182 4.104 10.26 2.052 8.208 5.13 16.416 10.26 23.598 2.052 1.026 3.078 3.078 5.13 3.078 6.156 0 9.234-3.078 9.234-8.208 0-2.052-2.052-10.26-3.078-12.312 3.078 3.078 6.156 6.156 9.234 9.234 29.754 27.702 51.3 13.338 51.3-1.026s-17.442-34.884-27.702-47.196c-3.078-3.078-9.234-10.26-9.234-12.312 0-3.078 1.026-4.104 4.104-4.104 4.104 0 12.312 7.182 16.416 10.26 9.234 7.182 23.598 19.494 32.832 27.702l29.754 273.943c-61.56-33.858-396.037-33.858-457.597 0zM488.377 639.201c0-43.092-463.753-43.092-463.753 0 0 17.442 103.626 31.806 231.876 31.806 17.442 0 35.91-1.026 52.326-1.026l25.65 97.47 123.12 129.276c2.052 3.078 11.286 0 19.494-7.182s13.338-15.39 10.26-18.468v0l-114.912-121.068-19.494-82.080c80.028-5.13 135.432-16.416 135.432-28.728zM348.841 629.967c0 1.026-2.052 2.052-5.13 4.104v-2.052c0-2.052-10.26-5.13-22.572-5.13s-22.572 3.078-22.572 5.13c0 0 0 0 1.026 1.026v1.026c-3.078-1.026-6.156-3.078-6.156-4.104 0-5.13 12.312-8.208 27.702-8.208s27.702 3.078 27.702 8.208z" />
<glyph unicode="&#xe836;" glyph-name="html5" horiz-adv-x="770" d="M0 834.142l69.768-793.101 313.957-105.678 316.009 105.678 69.768 793.101zM617.654 577.641h-368.335l8.208-99.522h351.919l-27.702-297.541-195.966-53.352v-1.026h-2.052l-198.018 54.378-11.286 151.848h95.418l7.182-75.924 106.704-28.728 107.73 28.728 12.312 125.172h-334.477l-25.65 291.385h483.247z" />
<glyph unicode="&#xe837;" glyph-name="jenkins" d="M975.729 46.172c-2.052 22.572-37.962 46.17-56.43 63.612-10.26 10.26-57.456 46.17-60.534 60.534-3.078 13.338 19.494 43.092 26.676 57.456 10.26 21.546 17.442 47.196 22.572 65.664 37.962 132.354 41.040 313.957-12.312 422.713-20.52 42.066-76.95 98.496-112.86 125.172-84.132 63.612-240.084 70.794-340.633 33.858-28.728-10.26-56.43-19.494-81.054-34.884-65.664-38.988-136.458-64.638-155.952-142.614-49.248-22.572-63.612-84.132-61.56-155.952 1.026-14.364 8.208-31.806 6.156-45.144-2.052-7.182-10.26-15.39-12.312-19.494-23.598-55.404-5.13-128.25 22.572-168.264 15.39-23.598 43.092-45.144 77.976-50.274 1.026-21.546 7.182-38.988 16.416-60.534 6.156-14.364 29.754-37.962 20.52-55.404-4.104-9.234-42.066-27.702-54.378-35.91-42.066-24.624-72.846-40.014-111.834-68.742-25.65-18.468-64.638-20.52-58.482-62.586 4.104-27.702 20.52-62.586 29.754-91.314 1.026-4.104 2.052-8.208 4.104-12.312h845.427c9.234 30.78 19.494 61.56 28.728 94.392 7.182 23.598 20.52 56.43 17.442 80.028zM412.453 830.038c4.104 1.026 7.182-1.026 10.26-4.104-1.026-11.286-11.286-10.26-18.468-14.364-10.26-13.338-26.676-19.494-40.014-33.858-13.338-15.39-28.728-55.404-46.17-60.534-9.234-2.052-19.494 2.052-27.702 1.026-20.52-1.026-35.91-12.312-56.43-15.39 26.676 60.534 111.834 108.756 178.524 127.224zM203.148 642.279c26.676 30.78 63.612 48.222 109.782 52.326 22.572-59.508-17.442-130.302-2.052-195.966 4.104-19.494 20.52-50.274-5.13-51.3 1.026 56.43-69.768 93.366-123.12 59.508-3.078 43.092-9.234 103.626 20.52 135.432zM275.995 241.113c-2.052 8.208-5.13 26.676-4.104 30.78 3.078 17.442 33.858 24.624 21.546 49.248-22.572 0-27.702-20.52-48.222-22.572-53.352-5.13-91.314 70.794-89.262 116.964 2.052 38.988 35.91 76.95 81.054 71.82 31.806-3.078 43.092-37.962 49.248-69.768 18.468-1.026 45.144 1.026 53.352 15.39-1.026 34.884-17.442 63.612-16.416 95.418 2.052 60.534 34.884 115.938 9.234 175.446 27.702 61.56 107.73 110.808 167.238 140.562 72.846 35.91 189.81 7.182 258.552-31.806 40.014-22.572 68.742-65.664 97.47-101.574-38.988 11.286-72.846-8.208-66.69-41.040 32.832 29.754 88.236 1.026 105.678-32.832 15.39-31.806 15.39-79.002 17.442-126.198 6.156-113.886-20.52-231.876-77.976-313.957-15.39-22.572-28.728-46.17-50.274-61.56-52.326-36.936-131.328-69.768-199.044-47.196-89.262 29.754-130.302 90.288-178.524 158.004 1.026-36.936 27.702-68.742 53.352-96.444 22.572-25.65 50.274-53.352 79.002-65.664-24.624 6.156-61.56 8.208-71.82-14.364-57.456 4.104-110.808 10.26-137.484 48.222-21.546 31.806-43.092 83.106-53.352 123.12zM721.28-7.18c8.208 6.156 21.546 6.156 34.884 7.182-11.286 5.13-26.676 7.182-38.988 4.104 0 8.208-4.104 14.364-6.156 20.52 21.546 8.208 70.794 57.456 99.522 41.040 13.338-8.208 18.468-52.326 19.494-73.872 1.026-18.468-1.026-36.936-8.208-46.17-37.962 1.026-71.82 5.13-101.574 14.364 1.026 12.312-2.052 23.598 1.026 32.832zM686.396 32.834c-33.858-1.026-52.326 2.052-76.95 21.546 1.026 2.052 3.078 1.026 3.078 3.078 35.91-16.416 82.080 6.156 119.016 9.234-16.416-9.234-29.754-22.572-45.144-33.858zM662.798-33.856c-4.104 18.468-7.182 24.624-6.156 41.040 50.274 32.832 59.508-57.456 6.156-41.040zM452.467 18.47c-22.572 2.052-95.418 28.728-76.95 48.222 19.494-13.338 55.404-10.26 83.106-15.39 1.026-8.208-6.156-19.494-6.156-32.832zM115.938-98.494c-9.234 25.65-18.468 50.274-29.754 73.872 61.56 48.222 130.302 98.496 204.174 127.224 6.156 2.052 47.196-50.274 53.352-55.404 32.832-23.598 73.872-42.066 111.834-60.534 3.078-17.442 8.208-40.014 17.442-70.794 2.052-5.13 3.078-9.234 5.13-14.364h-362.179zM598.16-109.78h-2.052c1.026 0 1.026 1.026 2.052 1.026zM612.524-98.494c4.104 3.078 9.234 6.156 13.338 8.208 2.052-2.052 4.104-5.13 6.156-8.208zM643.304-49.246c-21.546-14.364-41.040-35.91-66.69-50.274-12.312-6.156-54.378-23.598-66.69-20.52-7.182 2.052-8.208 11.286-11.286 19.494-6.156 17.442-20.52 46.17-21.546 73.872-2.052 34.884-5.13 92.34 31.806 85.158 29.754-6.156 64.638-19.494 88.236-32.832 14.364-7.182 22.572-16.416 44.118-18.468-1.026-3.078-1.026-6.156-1.026-9.234-11.286-7.182-30.78-7.182-43.092-13.338 18.468-1.026 33.858-6.156 47.196-12.312-1.026-7.182-1.026-14.364-1.026-21.546zM750.008-98.494h-27.702c0 6.156-6.156 11.286-12.312 11.286s-12.312-5.13-12.312-11.286h-34.884c-6.156 9.234-11.286 17.442-17.442 24.624 4.104 5.13 7.182 10.26 11.286 14.364 18.468-7.182 29.754 10.26 44.118 8.208 15.39-1.026 27.702-23.598 50.274-21.546zM767.45-98.494c0 8.208 1.026 15.39 1.026 23.598 31.806 14.364 58.482-3.078 71.82-23.598zM934.689-24.622c-5.13-22.572-11.286-48.222-19.494-73.872-1.026 0-1.026 0-2.052 0h-55.404c1.026 2.052 2.052 4.104 4.104 6.156-5.13 12.312-18.468 17.442-22.572 31.806 24.624 45.144 13.338 186.732-48.222 156.978 9.234 12.312 31.806 23.598 42.066 38.988 25.65-20.52 41.040-41.040 66.69-62.586 13.338-12.312 40.014-26.676 42.066-47.196 2.052-10.26-5.13-37.962-7.182-50.274zM445.285 636.123c11.286 29.754 54.378 69.768 90.288 64.638 15.39-3.078 35.91-16.416 24.624-35.91-60.534 14.364-91.314-25.65-108.756-66.69-16.416 4.104-10.26 26.676-6.156 37.962zM814.647 509.925c16.416 7.182 44.118 1.026 58.482 10.26-8.208 23.598-20.52 43.092-18.468 75.924 1.026 0 2.052 0 3.078 0 13.338-28.728 25.65-58.482 43.092-84.132-11.286-26.676-87.21-50.274-86.184-2.052zM620.732 504.795c-14.364 21.546-38.988 64.638-29.754 90.288 13.338-23.598 17.442-49.248 35.91-66.69 8.208-8.208 24.624-17.442 16.416-40.014-2.052-6.156-15.39-17.442-23.598-19.494-28.728-9.234-95.418-2.052-72.846 33.858 23.598-1.026 55.404-15.39 73.872 2.052zM675.11 364.233c7.182-13.338 3.078-37.962 23.598-41.040 41.040-7.182 88.236 24.624 116.964 34.884 18.468 30.78-2.052 42.066-17.442 61.56-33.858 40.014-77.976 90.288-76.95 149.796 13.338 10.26 15.39-15.39 16.416-19.494 17.442-41.040 61.56-92.34 93.366-127.224 7.182-8.208 20.52-16.416 21.546-22.572 4.104-16.416-10.26-35.91-8.208-47.196-44.118-27.702-92.34-58.482-163.134-51.3-15.39 13.338-21.546 43.092-6.156 62.586zM271.891 382.701c-14.364 8.208-17.442 42.066-32.832 43.092-23.598 1.026-18.468-45.144-18.468-71.82-16.416 14.364-18.468 58.482-7.182 81.054-13.338 6.156-19.494-7.182-26.676-11.286 9.234 67.716 99.522 30.78 85.158-41.040zM872.103 325.245c-20.52-38.988-49.248-81.054-108.756-82.080-1.026 12.312-2.052 30.78 0 37.962 46.17 5.13 73.872 27.702 108.756 44.118zM587.9 299.595c37.962-19.494 106.704-21.546 159.030-19.494 2.052-11.286 2.052-25.65 2.052-38.988-65.664-4.104-143.64 12.312-161.082 58.482zM772.58 206.229c-4.104-8.208-11.286-18.468-19.494-21.546-24.624-10.26-91.314-17.442-125.172 0-21.546 11.286-34.884 36.936-47.196 52.326-5.13 7.182-33.858 25.65 0 25.65 25.65-65.664 115.938-58.482 191.862-56.43z" />
<glyph unicode="&#xe838;" glyph-name="joomla" horiz-adv-x="898" d="M1.026 713.074c0 66.69 54.378 121.068 120.042 121.068 60.534 0 108.756-44.118 119.016-100.548 64.638 14.364 134.406-2.052 192.888-60.534l-88.236-89.262c-41.040 41.040-86.184 32.832-111.834 7.182-28.728-28.728-28.728-75.924 0-104.652l200.070-199.044-88.236-89.262c-175.446 175.446-99.522 99.522-200.070 200.070-53.352 53.352-69.768 130.302-50.274 198.018-53.352 12.312-93.366 59.508-93.366 116.964zM260.604 480.171l89.262-89.262c19.494 20.52 179.55 179.55 199.044 200.070 28.728 28.728 75.924 28.728 104.652 0 25.65-25.65 33.858-69.768-7.182-110.808l88.236-89.262c62.586 62.586 76.95 136.458 57.456 203.148 58.482 8.208 104.652 58.482 104.652 119.016 0 66.69-54.378 121.068-120.042 121.068-60.534 0-110.808-45.144-119.016-103.626-67.716 19.494-143.64 3.078-196.992-50.274-36.936-37.962-142.614-143.64-200.070-200.070zM794.127 175.449c16.416 64.638-1.026 136.458-52.326 187.758-23.598 24.624 10.26-9.234-199.044 200.070l-89.262-89.262 200.070-200.070c28.728-27.702 28.728-74.898 0-103.626-25.65-25.65-70.794-33.858-110.808 7.182l-88.236-89.262c55.404-60.534 135.432-77.976 205.2-55.404 11.286-55.404 59.508-96.444 117.99-96.444 66.69 0 120.042 53.352 120.042 120.042 0 60.534-45.144 110.808-103.626 119.016zM625.862 281.127l-88.236 89.262c-174.42-173.394-101.574-101.574-200.070-200.070-28.728-28.728-74.898-28.728-103.626 0-26.676 26.676-33.858 70.794 6.156 110.808l-88.236 89.262c-60.534-60.534-75.924-131.328-59.508-196.992-53.352-12.312-92.34-60.534-92.34-116.964 0-66.69 53.352-121.068 120.042-121.068 57.456 0 104.652 40.014 116.964 94.392 65.664-16.416 137.484 1.026 188.784 52.326 64.638 63.612 24.624 24.624 200.070 199.044z" />
</font>
</defs>
</svg>
